Поиск

(Free Jazz, Free Bop, Avant-Garde Jazz) [CD] Heiner Stadler (w/ Reggie Workman, Lenny White, Manfred Schoof, Gerd Dudek, Albert Mangelsdorff, Wolfgang Dauner a.o.) - Brains On Fire (2CD) (rec. 1966-1973) - 2012, FLAC (tracks+.cue), lossless

(Free Jazz, Free Bop, Avant-Garde Jazz) [CD] Heiner Stadler (w/ Reggie Workman, Lenny White, Manfred Schoof, Gerd Dudek, Albert Mangelsdorff, Wolfgang Dauner a.o.) - Brains On Fire (2CD) (rec. 1966-1973) - 2012, FLAC (tracks+.cue), lossless
Треклист:
Heiner Stadler / Brains On Fire (2CD)
Жанр: Free Jazz, Free Bop, Avant-Garde Jazz
Носитель: CD
Страна-производитель диска: US
Год издания: 2012
Издатель (лейбл): Labor Records
Номер по каталогу: LAB 7069
Страна: Germany
Аудиокодек: FLAC (*.flac)
Тип рипа: tracks+.cue
Битрейт аудио: lossless
Продолжительность: 60:11 + 72:07
Источник (релизер): свой фирменный диск
Наличие сканов в содержимом раздачи:
Треклист:
 
CD1
1. No Exercise 12:15
2. Three Problems 12:28
3. Heidi 10:40
4. Bea's Flat 24:35
 
CD2
1. Love In The Middle Of The Air (Alternate Master) 20:30
2. U.C.S. 14:44
3. All Tones 22:42
4. The Fugue No. 2 (Take 1 / Original Master) 13:49
 
Лог создания рипа
 
CD1
Exact Audio Copy V1.0 beta 3 from 29. August 2011
EAC extraction logfile from 5. April 2014, 20:44
Heiner Stadler / Brains On Fire CD1
Used drive : PIONEER DVD-RW DVR-115D Adapter: 0 ID: 0
Read mode : Secure
Utilize accurate stream : Yes
Defeat audio cache : Yes
Make use of C2 pointers : No
Read offset correction : 48
Overread into Lead-In and Lead-Out : No
Fill up missing offset samples with silence : Yes
Delete leading and trailing silent blocks : No
Null samples used in CRC calculations : Yes
Used interface : Installed external ASPI interface
Gap handling : Appended to previous track
Used output format : User Defined Encoder
Selected bitrate : 896 kBit/s
Quality : High
Add ID3 tag : No
Command line compressor : C:\Program Files\Exact Audio Copy\FLAC\FLAC.EXE
Additional command line options : -6 -V -T "ARTIST=%artist%" -T "TITLE=%title%" -T "ALBUM=%albumtitle%" -T "DATE=%year%" -T "TRACKNUMBER=%tracknr%" -T "GENRE=%genre%" -T "COMMENT=%comment%" -T "BAND=%albuminterpret%" -T "COMPOSER=%composer%" %haslyrics%--tag-from-file=LYRICS="%lyricsfile%"%haslyrics% -T "DISCNUMBER=%cdnumber%" -T "TOTALDISCS=%totalcds%" -T "TOTALTRACKS=%numtracks%" %hascover%--picture="%coverfile%"%hascover% %source% -o %dest%
TOC of the extracted CD
Track | Start | Length | Start sector | End sector
---------------------------------------------------------
1 | 0:00.00 | 12:19.02 | 0 | 55426
2 | 12:19.02 | 12:32.04 | 55427 | 111830
3 | 24:51.06 | 10:42.43 | 111831 | 160023
4 | 35:33.49 | 24:38.17 | 160024 | 270890
Track 1
Filename D:\zzz\01 - No Exercise.wav
Pre-gap length 0:00:02.00
Peak level 94.8 %
Extraction speed 4.9 X
Track quality 99.9 %
Test CRC ADC42162
Copy CRC ADC42162
Track not present in AccurateRip database
Copy OK
Track 2
Filename D:\zzz\02 - Three Problems.wav
Peak level 100.0 %
Extraction speed 6.4 X
Track quality 100.0 %
Test CRC 73B685C6
Copy CRC 73B685C6
Track not present in AccurateRip database
Copy OK
Track 3
Filename D:\zzz\03 - Heidi.wav
Peak level 93.2 %
Extraction speed 7.2 X
Track quality 100.0 %
Test CRC AF0F9E47
Copy CRC AF0F9E47
Track not present in AccurateRip database
Copy OK
Track 4
Filename D:\zzz\04 - Bea's Flat.wav
Peak level 99.2 %
Extraction speed 8.6 X
Track quality 100.0 %
Test CRC BFF1539A
Copy CRC BFF1539A
Track not present in AccurateRip database
Copy OK
None of the tracks are present in the AccurateRip database
No errors occurred
End of status report
==== Log checksum B7E2E9703E774D7898C1D4F41569BBD8780D042C49A2FD814938E4EA4B160D46 ====
 
CD2
Exact Audio Copy V1.0 beta 3 from 29. August 2011
EAC extraction logfile from 6. April 2014, 0:12
Heiner Stadler / Brains On Fire CD2
Used drive : PIONEER DVD-RW DVR-115D Adapter: 0 ID: 0
Read mode : Secure
Utilize accurate stream : Yes
Defeat audio cache : Yes
Make use of C2 pointers : No
Read offset correction : 48
Overread into Lead-In and Lead-Out : No
Fill up missing offset samples with silence : Yes
Delete leading and trailing silent blocks : No
Null samples used in CRC calculations : Yes
Used interface : Installed external ASPI interface
Gap handling : Appended to previous track
Used output format : User Defined Encoder
Selected bitrate : 896 kBit/s
Quality : High
Add ID3 tag : No
Command line compressor : C:\Program Files\Exact Audio Copy\FLAC\FLAC.EXE
Additional command line options : -6 -V -T "ARTIST=%artist%" -T "TITLE=%title%" -T "ALBUM=%albumtitle%" -T "DATE=%year%" -T "TRACKNUMBER=%tracknr%" -T "GENRE=%genre%" -T "COMMENT=%comment%" -T "BAND=%albuminterpret%" -T "COMPOSER=%composer%" %haslyrics%--tag-from-file=LYRICS="%lyricsfile%"%haslyrics% -T "DISCNUMBER=%cdnumber%" -T "TOTALDISCS=%totalcds%" -T "TOTALTRACKS=%numtracks%" %hascover%--picture="%coverfile%"%hascover% %source% -o %dest%
TOC of the extracted CD
Track | Start | Length | Start sector | End sector
---------------------------------------------------------
1 | 0:00.00 | 20:40.51 | 0 | 93050
2 | 20:40.51 | 14:47.70 | 93051 | 159645
3 | 35:28.46 | 22:46.11 | 159646 | 262106
4 | 58:14.57 | 13:52.73 | 262107 | 324579
Track 1
Filename D:\zzz\01 - Love In The Middle Of The Air (Alternate Master).wav
Pre-gap length 0:00:02.00
Peak level 85.9 %
Extraction speed 6.0 X
Track quality 99.9 %
Test CRC 832EBCC2
Copy CRC 832EBCC2
Track not present in AccurateRip database
Copy OK
Track 2
Filename D:\zzz\02 - U.C.S..wav
Peak level 100.0 %
Extraction speed 7.7 X
Track quality 100.0 %
Test CRC 49CA27B9
Copy CRC 49CA27B9
Track not present in AccurateRip database
Copy OK
Track 3
Filename D:\zzz\03 - All Tones.wav
Peak level 100.0 %
Extraction speed 8.8 X
Track quality 99.9 %
Test CRC 9B5B323D
Copy CRC 9B5B323D
Track not present in AccurateRip database
Copy OK
Track 4
Filename D:\zzz\04 - The Fugue No. 2 (Take 1 , Original Master).wav
Peak level 93.6 %
Extraction speed 1.0 X
Track quality 99.9 %
Test CRC DA0F28F1
Copy CRC DA0F28F1
Track not present in AccurateRip database
Copy OK
None of the tracks are present in the AccurateRip database
No errors occurred
End of status report
==== Log checksum 01F1CDAEDA6957F5CDE2254526EC37549280BEDBDAB3F421A2966C7AB50B002F ====
 
Содержание индексной карты (.CUE)
 
CD1
REM GENRE "Free Jazz"
REM DATE 2012
REM DISCID 2A0E1B04
REM COMMENT "ExactAudioCopy v1.0b3"
PERFORMER "Heiner Stadler"
TITLE "Brains On Fire CD1"
FILE "01 - No Exercise.wav" WAVE
TRACK 01 AUDIO
TITLE "No Exercise"
PERFORMER "Heiner Stadler"
INDEX 01 00:00:00
FILE "02 - Three Problems.wav" WAVE
TRACK 02 AUDIO
TITLE "Three Problems"
PERFORMER "Heiner Stadler"
INDEX 01 00:00:00
FILE "03 - Heidi.wav" WAVE
TRACK 03 AUDIO
TITLE "Heidi"
PERFORMER "Heiner Stadler"
INDEX 01 00:00:00
FILE "04 - Bea's Flat.wav" WAVE
TRACK 04 AUDIO
TITLE "Bea's Flat"
PERFORMER "Heiner Stadler"
INDEX 01 00:00:00
 
CD2
REM GENRE "Free Jazz"
REM DATE 2012
REM DISCID 2710E704
REM COMMENT "ExactAudioCopy v1.0b3"
PERFORMER "Heiner Stadler"
TITLE "Brains On Fire CD2"
FILE "01 - Love In The Middle Of The Air (Alternate Master).wav" WAVE
TRACK 01 AUDIO
TITLE "Love In The Middle Of The Air (Alternate Master)"
PERFORMER "Heiner Stadler"
INDEX 01 00:00:00
FILE "02 - U.C.S..wav" WAVE
TRACK 02 AUDIO
TITLE "U.C.S."
PERFORMER "Heiner Stadler"
INDEX 01 00:00:00
FILE "03 - All Tones.wav" WAVE
TRACK 03 AUDIO
TITLE "All Tones"
PERFORMER "Heiner Stadler"
INDEX 01 00:00:00
FILE "04 - The Fugue No. 2 (Take 1 , Original Master).wav" WAVE
TRACK 04 AUDIO
TITLE "The Fugue No. 2 (Take 1 / Original Master)"
PERFORMER "Heiner Stadler"
INDEX 01 00:00:00
 
Лог проверки качества
d:\>d:\aucdtect -d/-m0 d:\zzz\*.wav
auCDtect: CD records authenticity detector, version 0.8.2
Copyright (c) 2004 Oleg Berngardt. All rights reserved.
Copyright (c) 2004 Alexander Djourik. All rights reserved.
------------------------------------------------------------
Processing file: [01. Love In The Middle Of The Air (Alternate Master).wav]
------------------------------------------------------------
This track looks like CDDA with probability 100%
------------------------------------------------------------
Processing file: [01. No Exercise.wav]
------------------------------------------------------------
This track looks like CDDA with probability 100%
------------------------------------------------------------
Processing file: [02. Three Problems.wav]
------------------------------------------------------------
This track looks like CDDA with probability 99%
------------------------------------------------------------
Processing file: [02. U.C.S..wav]
------------------------------------------------------------
This track looks like CDDA with probability 100%
------------------------------------------------------------
Processing file: [03. All Tones.wav]
------------------------------------------------------------
This track looks like CDDA with probability 100%
------------------------------------------------------------
Processing file: [03. Heidi.wav]
------------------------------------------------------------
This track looks like CDDA with probability 100%
------------------------------------------------------------
Processing file: [04. Bea's Flat.wav]
------------------------------------------------------------
This track looks like CDDA with probability 100%
------------------------------------------------------------
Processing file: [04. The Fugue No. 2 (Take 1 - Original Master).wav]
------------------------------------------------------------
This track looks like CDDA with probability 99%
------------------------------------------------------------
Final Conclusion:
------------------------------------------------------------
These tracks looks like CDDA with probability 100%
Доп. информация:
 
Album Info & AMG Review
CD1: tracks 1,2,4 - first release
All other tracks: first CD release
1.4. produced by Wolfgang Kunert for the North German Broadcasting System
All other compositions produced by Heiner Stadler
All compositions by Heiner Stadler except 1.4., which is a Russ Freeman composition
Recorded October 1973 at Generation Sound Studios, New York City / Engineer: Tony May (1.1)
Recorded July/September 1971 at O'Brien's Studio, Teaneck, New Jersey / Engineer: Orville O'Brien (1.2,1.3,2.2,2.3)
Written in 1966, recorded in February 1974 at the studios of the North German Radio Station / Supervision: Wolfgang Kunert (1.4)
Recorded July 1973 at Generation Sound Studios, New York City / Engineer: Tony May (2.1)
Recorded in December 1966 at Nola Penthouse Sound Studios, New York City / Engineer: Tommy Nola (2.4)
Liner notes: Howard Mandel
Illustration: Johann Feindt
Photography: M. De Chiara
Design: Conni Lechner
Re-mastered from original sources by Malcolm Addey
African themes and classical motifs filter through an excellent jazz ensemble under Stadler's direction. "The Fugue #2," "Heide," and "All Tones" are all extended pieces. With Joe Farrell, Don Friedman, Jimmy Owens, Tyrone Washington, Garnett Brown, Joe Chambers, and Barre Phillips. Sextet and quartet recordings, with Stadler on piano on quartet cuts only. For listeners willing to be challenged.
 
Состав
Jimmy Owens: trumpet (1.1,2.4)
Tyrone Washington: tenor sax (1.1), tenor sax / flute (1.2,1.3,2.2,2.3)
Garnett Brown: trombone (1.1,2.4)
Heiner Stadler: piano (1.1,1.2,1.3,2.2,2.3)
Reggie Workman: bass (1.1,1.2,1.3,2.1,2.2,2.3)
Brian Brake: drums (1.1)
Lenny White: drums (1.2,1.3,2.2,2.3)
The Big Band Of The North German Radio Station conducted by Dieter Glawischnig featuring:
Manfred Schoof: cornet
Gerd Dudek: tenor sax
Albert Mangelsdorff: trombone
Wolfgang Dauner: piano
Lucas Lindholm: bass
Tony Inzalaco: drums (1.4)
Dee Dee Bridgewater: vocal (2.1)
Joe Farrell: tenor sax (2.4)
Don Friedman: piano (2.4)
Barre Phillips: bass (2.4)
Joe Chambers: drums (2.4)
По всем вопросам пишите личное сообщение пользователю M0p94ok.
02:01
381
Нет комментариев. Ваш будет первым!