Вы используете незарегистрированную версию компонента "Вкладки"!

Поиск

(avant-garde, free jazz) [cd] Alexander von Schlippenbach, Carlos Bechegas ‎– Open Speech 2004, FLAC (tracks+.cue), lossless

(avant-garde, free jazz) [cd] Alexander von Schlippenbach, Carlos Bechegas ‎– Open Speech 2004, FLAC (tracks+.cue), lossless
Треклист:


Alexander von Schlippenbach, Carlos Bechegas ‎– Open Speech 2004

Жанр:avant-garde, free jazz
Год выпуска: 2004
Издатель (лейбл):Forward.rec 03
Формат: FLAC (tracks+.cue)
Битрейт аудио: lossless
Продолжительность 58`18
Источник: nnm
Flute [Flutes], Voice – Carlos Bechegas
Piano – Alexander von Schlippenbach
Recorded on 12 July 2003 at the 13th Jazz à Luz Festival, France

tracks
1 Speech I 11:15
2 Speech II 15:05
3 Speech II 11:10
4 Speech IV 9:35
5 Speech V 10:30


 
.accurip
[CUETools log; Date: 16/05/14 03:31:43; Version: 2.1.4]
[AccurateRip ID: 000c75d7-0039ba0e-3f0daa05] found.
Track [ CRC | V2 ] Status
01 [2f577626|d099c92c] (0+1/1) Accurately ripped
02 [94d18c09|ecac5188] (0+1/1) Accurately ripped
03 [84aafc38|b6b27813] (0+1/1) Accurately ripped
04 [d9e9cd78|4e3a16c8] (0+1/1) Accurately ripped
05 [75120742|2e807c5b] (0+1/1) Accurately ripped
Track Peak [ CRC32 ] [W/O NULL]
-- 100.0 [BAE1F461] [F409FF81]
01 100.0 [F440459F] [07228970]
02 100.0 [8DB67D1B] [506740CC]
03 100.0 [A7AA7856] [D0EF593A]
04 100.0 [6F18D10D] [05D82CD8]
05 100.0 [642703DD] [EF539D52]

другие релизы
По всем вопросам пишите личное сообщение пользователю M0p94ok.
02:00
186
Нет комментариев. Ваш будет первым!