Вы используете незарегистрированную версию компонента "Вкладки"!

Поиск

(Free Jazz) Fred Anderson Quartet - Dark Day + Live In Verona - 2001, FLAC (tracks+.cue) lossless

Треклист:
Fred Anderson Quartet - Dark Day + Live In Verona
Жанр: Free Jazz
Страна-производитель диска: USA
Год издания диска: 2001
Издатель (лейбл): Unheard Music Series / Atavistic
Номер по каталогу: UMS/ALP 218
Страна: USA
Аудио кодек: FLAC (*.flac)
Тип рипа: tracks+.cue
Битрейт аудио: lossless
Продолжительность: 2:12:51
Источник (релизер): собственный рип с оригинального диска
Наличие сканов в содержимом раздачи: да
Треклист:
Dark Day
1-1 Dark Day 18:41
1-2 Saxoon 11:36
1-3 Three On Two 18:08
1-4 The Prayer 10:54
Live In Verona
2-1 The Bull 16:32
2-2 Three On Two 31:46
2-3 Dark Day 25:12
 
Лог создания рипа

 
Disk 1
Exact Audio Copy V0.99 prebeta 5 from 4. May 2009
EAC extraction logfile from 18. October 2010, 8:32
Fred Anderson Quartet / Dark Day
Used drive : TSSTcorpCDDVDW SH-S222A Adapter: 1 ID: 0
Read mode : Secure
Utilize accurate stream : Yes
Defeat audio cache : Yes
Make use of C2 pointers : No
Read offset correction : 6
Overread into Lead-In and Lead-Out : No
Fill up missing offset samples with silence : Yes
Delete leading and trailing silent blocks : No
Null samples used in CRC calculations : Yes
Used interface : Native Win32 interface for Win NT & 2000
Gap handling : Appended to previous track
Used output format : User Defined Encoder
Selected bitrate : 768 kBit/s
Quality : High
Add ID3 tag : No
Command line compressor : C:\tool\Audio\Exact Audio Copy\FLAC\FLAC.EXE
Additional command line options : -V -8 -T "ARTIST=%a" -T "TITLE=%t" -T "ALBUM=%g" -T "TRACKNUMBER=%n" -T "GENRE=%m" %s
TOC of the extracted CD
Track | Start | Length | Start sector | End sector
---------------------------------------------------------
1 | 0:00.00 | 18:40.59 | 0 | 84058
2 | 18:40.59 | 11:36.18 | 84059 | 136276
3 | 30:17.02 | 18:07.58 | 136277 | 217859
4 | 48:24.60 | 10:54.32 | 217860 | 266941
Track 1
Filename C:\! RUTRACKER\ru up\Fred Anderson Quartet - Dark Day + Live in Verona\CD1\01 - Dark Day.wav
Pre-gap length 0:00:02.00
Peak level 79.2 %
Track quality 100.0 %
Test CRC E016F62C
Copy CRC E016F62C
Track not present in AccurateRip database
Copy OK
Track 2
Filename C:\! RUTRACKER\ru up\Fred Anderson Quartet - Dark Day + Live in Verona\CD1\02 - Saxoon.wav
Peak level 89.8 %
Track quality 100.0 %
Test CRC D7692ACA
Copy CRC D7692ACA
Track not present in AccurateRip database
Copy OK
Track 3
Filename C:\! RUTRACKER\ru up\Fred Anderson Quartet - Dark Day + Live in Verona\CD1\03 - Three on Two.wav
Pre-gap length 0:00:03.58
Peak level 63.7 %
Track quality 100.0 %
Test CRC BC513EA2
Copy CRC BC513EA2
Track not present in AccurateRip database
Copy OK
Track 4
Filename C:\! RUTRACKER\ru up\Fred Anderson Quartet - Dark Day + Live in Verona\CD1\04 - The Prayer.wav
Peak level 46.8 %
Track quality 100.0 %
Test CRC 5C2084A1
Copy CRC 5C2084A1
Track not present in AccurateRip database
Copy OK
None of the tracks are present in the AccurateRip database
No errors occurred
End of status report
 
Disk 2
Exact Audio Copy V0.99 prebeta 5 from 4. May 2009
EAC extraction logfile from 18. October 2010, 9:38
Fred Anderson Quartet / Live in Verona
Used drive : TSSTcorpCDDVDW SH-S222A Adapter: 1 ID: 0
Read mode : Secure
Utilize accurate stream : Yes
Defeat audio cache : Yes
Make use of C2 pointers : No
Read offset correction : 6
Overread into Lead-In and Lead-Out : No
Fill up missing offset samples with silence : Yes
Delete leading and trailing silent blocks : No
Null samples used in CRC calculations : Yes
Used interface : Native Win32 interface for Win NT & 2000
Gap handling : Appended to previous track
Used output format : User Defined Encoder
Selected bitrate : 768 kBit/s
Quality : High
Add ID3 tag : No
Command line compressor : C:\tool\Audio\Exact Audio Copy\FLAC\FLAC.EXE
Additional command line options : -V -8 -T "ARTIST=%a" -T "TITLE=%t" -T "ALBUM=%g" -T "TRACKNUMBER=%n" -T "GENRE=%m" %s
TOC of the extracted CD
Track | Start | Length | Start sector | End sector
---------------------------------------------------------
1 | 0:00.00 | 16:33.48 | 0 | 74522
2 | 16:33.48 | 31:49.37 | 74523 | 217734
3 | 48:23.10 | 25:12.34 | 217735 | 331168
Track 1
Filename C:\! RUTRACKER\ru up\Fred Anderson Quartet - Dark Day + Live in Verona\CD2\01 - The Bull.wav
Pre-gap length 0:00:02.00
Peak level 85.8 %
Track quality 100.0 %
Test CRC 03A69FA0
Copy CRC 03A69FA0
Accurately ripped (confidence 1) [203A9F1B]
Copy OK
Track 2
Filename C:\! RUTRACKER\ru up\Fred Anderson Quartet - Dark Day + Live in Verona\CD2\02 - Three On Two.wav
Peak level 87.1 %
Track quality 100.0 %
Test CRC 384C90F2
Copy CRC 384C90F2
Accurately ripped (confidence 1) [26364427]
Copy OK
Track 3
Filename C:\! RUTRACKER\ru up\Fred Anderson Quartet - Dark Day + Live in Verona\CD2\03 - Dark Day.wav
Pre-gap length 0:00:02.71
Peak level 79.0 %
Track quality 100.0 %
Test CRC 2D34A284
Copy CRC 2D34A284
Accurately ripped (confidence 1) [7952C20D]
Copy OK
All tracks accurately ripped
No errors occurred
End of status report
 
Содержание индексной карты (.CUE)

 
Disk 1
REM GENRE "Free Jazz"
REM DATE 1979
REM DISCID 2C0DE704
REM COMMENT "ExactAudioCopy v0.99pb5"
PERFORMER "Fred Anderson Quartet"
TITLE "Dark Day"
FILE "01 - Dark Day.wav" WAVE
TRACK 01 AUDIO
TITLE "Dark Day"
PERFORMER "Fred Anderson Quartet"
INDEX 01 00:00:00
FILE "02 - Saxoon.wav" WAVE
TRACK 02 AUDIO
TITLE "Saxoon"
PERFORMER "Fred Anderson Quartet"
INDEX 01 00:00:00
TRACK 03 AUDIO
TITLE "Three on Two"
PERFORMER "Fred Anderson Quartet"
INDEX 00 11:32:35
FILE "03 - Three on Two.wav" WAVE
INDEX 01 00:00:00
FILE "04 - The Prayer.wav" WAVE
TRACK 04 AUDIO
TITLE "The Prayer"
PERFORMER "Fred Anderson Quartet"
INDEX 01 00:00:00
 
Disk 2
REM GENRE "Free Jazz"
REM DATE 1979
REM DISCID 29113F03
REM COMMENT "ExactAudioCopy v0.99pb5"
PERFORMER "Fred Anderson Quartet"
TITLE "Live in Verona"
FILE "01 - The Bull.wav" WAVE
TRACK 01 AUDIO
TITLE "The Bull"
PERFORMER "Fred Anderson Quartet"
INDEX 01 00:00:00
FILE "02 - Three On Two.wav" WAVE
TRACK 02 AUDIO
TITLE "Three On Two"
PERFORMER "Fred Anderson Quartet"
INDEX 01 00:00:00
TRACK 03 AUDIO
TITLE "Dark Day"
PERFORMER "Fred Anderson Quartet"
INDEX 00 31:46:41
FILE "03 - Dark Day.wav" WAVE
INDEX 01 00:00:00
Доп. информация:
Tracks 1-1 - 1-4 recorded at Museum of Contemporary Art, Chicago, May 15, 1979 and originally issued in 1979 on Message Records (Message0004).
Tracks 2-1 - 2-3 recorded live at Verona Jazz 1979, Palazzo Della Gran Guardia, Verona, Italy on May 19, 1979. Previously unissued.
 
Об альбоме (сборнике)
John Corbett's Unheard Music Series of out jazz and improv classics, which is being released and distributed by Chicago's Atavistic label, has provided listeners a second opportunity to hear music that slipped through the cracks either because the label it originally appeared on was too small or because it was ignored due to its power and danger. In the case of saxophonist Fred Anderson, the package is a double treat because it pairs a very rare 1979 live date in his hometown of Chicago with members of the AACM (issued in an edition of only a few hundred on Message Records) with a completely unreleased master recorded four days later in Verona, Italy. The band is comprised of Anderson on tenor, longtime associate Billy Brimfield on trumpet, bassist Steven Palmore, and a very young Hamid Drake, then known as Hank, on drums. Musically, both sessions repeat two tunes, "Three on Two" and "Dark Day." The mournful "Dark Day" is an Anderson signature piece, with its long modal beginning twinning Anderson and Brimfield in elegantly moaning lines that engage the rhythm section at the periphery. On disc one, this is followed by the relatively straight post-bop blues of "Saxoon," in which both front-line players trade solos along an augmented blues figure by Palmore and a skittering skein of double- and triple-time dancing by Drake. With "Three on Two," both performances begin in Eastern tonal modes, syncopated by choppy lines and odd meters and durations of melodic particulars. On the earlier date, the band cuts loose sooner, moving through the Eastern modes and inserting a Latin-tinged blues into the center of the cut-time figure. On the latter, the band moves to Anderson's solo and shifts to the margin and outside of the Latin harmony toward some synthesis of rhythm and extended microtonality. The other two selections on these discs, Drake's "The Prayer," from Chicago, and Anderson's classic "The Bull," are both energetic -- even hyperkinetic -- ensemble pieces where solos and improvisational explorations take place from the ground up. Obviously in the case of "The Prayer," it's rhythm first and then the explosion of trumpet and saxophone interweaving that encounters it, moves through it, and then attempts to transform the concept of rhythm into one of elongated harmonics that go beyond scalar considerations and into the roots of scales themselves. On "The Bull," it's harmony and the way it functions against polytonality and an unfixed sense of rhythmic push and pull, where rhythm doesn't stand so much in opposition to the intricate melodic considerations -- Brimfield truly shines here -- but instead as a counterpoint to harmonic invention and an intervallic foil for Anderson to take microharmonic statements and build them in gargantuan language structures. Anyway you listen to it, these two dates on a pair of very reasonably prices CDs -- with great sound -- are gifts rescued from the islands of obscurity, and should be listened to with the awe and wonder they inspire.
 
Состав
Fred Anderson - tenor saxophone
Bill Brimfield - trumpet
Steve Palmore - bass
Hamid Drake - drums, tabla
Any questions -> support@pro-jazz.com. По всем вопросам пишите -> support@pro-jazz.com
04:29
184
Нет комментариев. Ваш будет первым!