Вы используете незарегистрированную версию компонента "Вкладки"!

Поиск

(Free Jazz) Fred Anderson Trio - Birthday Live 2000 - 2009, FLAC (tracks+.cue) lossless

Треклист:
Fred Anderson Trio - Birthday Live 2000
Жанр: Free Jazz
Страна-производитель диска: USA
Год издания диска: 2009
Издатель (лейбл): Asian Improv Records
Номер по каталогу: 0075
Страна: USA
Аудио кодек: FLAC (*.flac)
Тип рипа: tracks+.cue
Битрейт аудио: lossless
Продолжительность: 50:18
Источник (релизер): собственный рип с оригинального диска
Наличие сканов в содержимом раздачи: да
Треклист:
01. Track 1 22:40
02. Track 2 13:14
03. Track 3 14:24
 
Лог создания рипа
Exact Audio Copy V0.99 prebeta 5 from 4. May 2009
EAC extraction logfile from 23. October 2010, 14:10
Fred Anderson Trio / Birthday Live 2000
Used drive : TSSTcorpCDDVDW SH-S222A Adapter: 1 ID: 0
Read mode : Secure
Utilize accurate stream : Yes
Defeat audio cache : Yes
Make use of C2 pointers : No
Read offset correction : 6
Overread into Lead-In and Lead-Out : No
Fill up missing offset samples with silence : Yes
Delete leading and trailing silent blocks : No
Null samples used in CRC calculations : Yes
Used interface : Native Win32 interface for Win NT & 2000
Gap handling : Appended to previous track
Used output format : User Defined Encoder
Selected bitrate : 768 kBit/s
Quality : High
Add ID3 tag : No
Command line compressor : C:\tool\Audio\Exact Audio Copy\FLAC\FLAC.EXE
Additional command line options : -V -8 -T "ARTIST=%a" -T "TITLE=%t" -T "ALBUM=%g" -T "TRACKNUMBER=%n" -T "GENRE=%m" %s
TOC of the extracted CD
Track | Start | Length | Start sector | End sector
---------------------------------------------------------
1 | 0:00.00 | 22:41.32 | 0 | 102106
2 | 22:41.32 | 13:14.30 | 102107 | 161686
3 | 35:55.62 | 14:23.37 | 161687 | 226448
Track 1
Filename C:\! RUTRACKER\ru up\Fred Anderson Trio - Birthday Live 2000\01 - Track 1.wav
Pre-gap length 0:00:02.00
Peak level 100.0 %
Track quality 99.9 %
Test CRC 3C2A9E4B
Copy CRC 3C2A9E4B
Track not present in AccurateRip database
Copy OK
Track 2
Filename C:\! RUTRACKER\ru up\Fred Anderson Trio - Birthday Live 2000\02 - Track 2.wav
Peak level 100.0 %
Track quality 100.0 %
Test CRC B041B9B0
Copy CRC B041B9B0
Track not present in AccurateRip database
Copy OK
Track 3
Filename C:\! RUTRACKER\ru up\Fred Anderson Trio - Birthday Live 2000\03 - Track 3.wav
Peak level 100.0 %
Track quality 100.0 %
Test CRC F3F557AD
Copy CRC F3F557AD
Track not present in AccurateRip database
Copy OK
None of the tracks are present in the AccurateRip database
No errors occurred
End of status report
 
Содержание индексной карты (.CUE)
REM GENRE "Free Jazz"
REM DATE 2000
REM DISCID 1E0BCB03
REM COMMENT "ExactAudioCopy v0.99pb5"
PERFORMER "Fred Anderson Trio"
TITLE "Birthday Live 2000"
FILE "01 - Track 1.wav" WAVE
TRACK 01 AUDIO
TITLE "Track 1"
PERFORMER "Fred Anderson Trio"
INDEX 01 00:00:00
FILE "02 - Track 2.wav" WAVE
TRACK 02 AUDIO
TITLE "Track 2"
PERFORMER "Fred Anderson Trio"
INDEX 01 00:00:00
FILE "03 - Track 3.wav" WAVE
TRACK 03 AUDIO
TITLE "Track 3"
PERFORMER "Fred Anderson Trio"
INDEX 01 00:00:00
Доп. информация:
Recorded Live at Velvet Lounge on 3/22 & 25, 2000
An official bootleg album (limited edition)
 
Об исполнителе (группе)
In 2000 it was the Fred Anderson Trio that commemorated the leader's 71st, with Taylor and Tatsu Aoki on bass. Labeled an "official bootleg" (and distributed in limited supply), Birthday Live 2000 captures Anderson as a steamroller running roughshod over the bedrock rhythms established by Taylor's skilled work around the rims and Aoki's resonating neck-bending. The sound at times is rawer than we're used to from Anderson recordings. On "Track 1" the tenor has a metallic leading edge that infuses the playing with urgency and an element of danger. As the program continues, it's Anderson's authoritative blues-drenched sound and boundless creativity that whip Aoki and Taylor into shape.
 
Об альбоме (сборнике)
There's something about the kind of conversations you can have with old friends--you can skip straight to the heart of the matter. As is the case with this trio of Fred Anderson, Tatsu Aoki and Chad Taylor who performed many times together at the Velvet Lounge. On this particular date at the turn of the millennium, it was the birthday of the heart and soul of the Velvet, tenor sax legend Fred Anderson. This very limited edition archival recording (we call it an official bootleg) is being made available as part of the celebration of Fred's 80th year of life on our planet. It is a true collectors item as only limited copies were made-- and they are being sold to benefit Fred and our beloved Velvet Lounge.
 
Состав
Fred Anderson - tenor saxophone
Chad Taylor - drums
Tatsu Aoki - bass
Any questions -> support@pro-jazz.com. По всем вопросам пишите -> support@pro-jazz.com
04:29
192
Нет комментариев. Ваш будет первым!