Поиск

1980 AMM III - It had been an ordinary enough day in Pueblo, Colorado [CD]

1980 AMM III - It had been an ordinary enough day in Pueblo, Colorado [CD]
Издатель (лейбл):
Доп. инфо:

Страна-производитель диска: Germany
Год издания диска: 1980
Издатель (лейбл): JAPO / ECM Records
Номер по каталогу: JAPO 60031
Страна: Germany
Аудио кодек: FLAC (*.flac)
Тип рипа: tracks+.cue
Битрейт аудио: lossless
Продолжительность: 47:31
Источник (релизер): собственный рип с оригинального диска
Наличие сканов в содержимом раздачи: да

Лог создания рипа
Audio Copy V0.99 prebeta 5 from 4. May 2009
EAC extraction logfile from 18. October 2010, 17:39
AMM III / It had been an ordinary enough day in Pueblo, Colorado
Used drive  : TSSTcorpCDDVDW SH-S222A   Adapter: 1  ID: 0
Read mode               : Secure
Utilize accurate stream : Yes
Defeat audio cache      : Yes
Make use of C2 pointers : No
Read offset correction                      : 6
Overread into Lead-In and Lead-Out          : No
Fill up missing offset samples with silence : Yes
Delete leading and trailing silent blocks   : No
Null samples used in CRC calculations       : Yes
Used interface                              : Native Win32 interface for Win NT & 2000
Gap handling                                : Appended to previous track
Used output format              : User Defined Encoder
Selected bitrate                : 768 kBit/s
Quality                         : High
Add ID3 tag                     : No
Command line compressor         : C:\tool\Audio\Exact Audio Copy\FLAC\FLAC.EXE
Additional command line options : -V -8 -T "ARTIST=%a" -T "TITLE=%t" -T "ALBUM=%g" -T "TRACKNUMBER=%n" -T "GENRE=%m" %s
TOC of the extracted CD
     Track |   Start  |  Length  | Start sector | End sector
    ---------------------------------------------------------
        1  |  0:00.32 | 18:22.13 |        32    |    82694
        2  | 18:22.45 |  5:19.12 |     82695    |   106631
        3  | 23:41.57 |  8:30.00 |    106632    |   144881
        4  | 32:11.57 |  6:53.13 |    144882    |   175869
        5  | 39:04.70 |  8:27.62 |    175870    |   213956
Track  1
     Filename C:\! RUTRACKER\ru up\AMM III - It had been an ordinary\01 - Radio Activity.wav
     Pre-gap length  0:00:02.32
     Peak level 79.8 %
     Track quality 100.0 %
     Test CRC 7E9D1941
     Copy CRC 7E9D1941
     Track not present in AccurateRip database
     Copy OK
Track  2
     Filename C:\! RUTRACKER\ru up\AMM III - It had been an ordinary\02 - Convergence.wav
     Pre-gap length  0:00:01.63
     Peak level 65.4 %
     Track quality 100.0 %
     Test CRC 0D5F2952
     Copy CRC 0D5F2952
     Track not present in AccurateRip database
     Copy OK
Track  3
     Filename C:\! RUTRACKER\ru up\AMM III - It had been an ordinary\03 - Kline.wav
     Pre-gap length  0:00:04.00
     Peak level 71.9 %
     Track quality 100.0 %
     Test CRC 778810E2
     Copy CRC 778810E2
     Track not present in AccurateRip database
     Copy OK
Track  4
     Filename C:\! RUTRACKER\ru up\AMM III - It had been an ordinary\04 - Spittlefields' Slide.wav
     Pre-gap length  0:00:03.25
     Peak level 81.0 %
     Track quality 100.0 %
     Test CRC 420A2164
     Copy CRC 420A2164
     Track not present in AccurateRip database
     Copy OK
Track  5
     Filename C:\! RUTRACKER\ru up\AMM III - It had been an ordinary\05 - For A.wav
     Pre-gap length  0:00:03.13
     Peak level 74.4 %
     Track quality 100.0 %
     Test CRC 46BF8A4C
     Copy CRC 46BF8A4C
     Track not present in AccurateRip database
     Copy OK
None of the tracks are present in the AccurateRip database
No errors occurred
End of status report
Содержание индексной карты (.CUE)
REM GENRE "Avant Garde"
REM DATE 1979
REM DISCID 310B2405
REM COMMENT "ExactAudioCopy v0.99pb5"
CATALOG 0042284320627
PERFORMER "AMM III"
TITLE "It had been an ordinary enough day in Pueblo, Colorado"
FILE "01 - Radio Activity.wav" WAVE
  TRACK 01 AUDIO
    TITLE "Radio Activity"
    PERFORMER "AMM III"
    PREGAP 00:00:32
    INDEX 01 00:00:00
  TRACK 02 AUDIO
    TITLE "Convergence"
    PERFORMER "AMM III"
    INDEX 00 18:20:25
FILE "02 - Convergence.wav" WAVE
    INDEX 01 00:00:00
  TRACK 03 AUDIO
    TITLE "Kline"
    PERFORMER "AMM III"
    INDEX 00 05:15:12
FILE "03 - Kline.wav" WAVE
    INDEX 01 00:00:00
  TRACK 04 AUDIO
    TITLE "Spittlefields' Slide"
    PERFORMER "AMM III"
    INDEX 00 08:26:50
FILE "04 - Spittlefields' Slide.wav" WAVE
    INDEX 01 00:00:00
  TRACK 05 AUDIO
    TITLE "For A"
    PERFORMER "AMM III"
    INDEX 00 06:50:00
FILE "05 - For A.wav" WAVE
    INDEX 01 00:00:00
No seeders - write personal message to M0p94ok. Any questions - support@pro-jazz.com.
Нет сидеров - пишите в личку M0p94ok. Есть вопросы - support@pro-jazz.com
04:28
145
Нет комментариев. Ваш будет первым!