Поиск

(Free Jazz) Frank Lowe - Decision in Paradise - 1985, FLAC (tracks+.cue), lossless

(Free Jazz) Frank Lowe - Decision in Paradise - 1985, FLAC (tracks+.cue), lossless
Треклист:
Frank Lowe - Decision in Paradise
Жанр: Free Jazz
Страна-производитель диска: Italy
Год издания диска: 1985
Издатель (лейбл): Soul Note Records
Номер по каталогу: SN 121 082-2
Аудиокодек: FLAC (*.flac)
Тип рипа: tracks+.cue
Битрейт аудио: lossless
Продолжительность: 39:23
Источник (релизер): собственный рип с оригинального диска.
Наличие сканов в содержимом раздачи: да
Треклист:
01. Decision in Paradise (Frank Lowe) 05:05
02. I'll Whistle Your Name (Lawrence "Butch" Morris) 03:27
03. Cherryco (Don Cherry) 06:03
04. Lowe-Ologie (Frank Lowe) 05:28
05. You Dig (Grachan Moncur III) 08:23
06. Dues and Don'ts (Frank Lowe) 10:57
 
Лог создания рипа
Exact Audio Copy V0.99 prebeta 5 from 4. May 2009
EAC extraction logfile from 22. June 2011, 17:53
Frank Lowe / Decision In Paradise
Used drive : TSSTcorpCDDVDW SH-S222A Adapter: 1 ID: 0
Read mode : Secure
Utilize accurate stream : Yes
Defeat audio cache : Yes
Make use of C2 pointers : No
Read offset correction : 6
Overread into Lead-In and Lead-Out : No
Fill up missing offset samples with silence : Yes
Delete leading and trailing silent blocks : No
Null samples used in CRC calculations : Yes
Used interface : Installed external ASPI interface
Gap handling : Appended to previous track
Used output format : User Defined Encoder
Selected bitrate : 768 kBit/s
Quality : High
Add ID3 tag : No
Command line compressor : C:\Tool\Compress\FLAC\flac.exe
Additional command line options : -8 -V -T "ARTIST=%a" -T "TITLE=%t" -T "ALBUM=%g" -T "DATE=%y" -T "TRACKNUMBER=%n" -T "TOTALTRACKS=%x" -T "GENRE=%m" -T "ALBUM ARTIST=%v" -T "COMMENT=EAC V0.99 prebeta 5, Secure Mode, Test & Copy, AccurateRip, FLAC -8" %s
TOC of the extracted CD
Track | Start | Length | Start sector | End sector
---------------------------------------------------------
1 | 0:00.00 | 5:05.57 | 0 | 22931
2 | 5:05.57 | 3:27.28 | 22932 | 38484
3 | 8:33.10 | 6:03.47 | 38485 | 65756
4 | 14:36.57 | 5:28.03 | 65757 | 90359
5 | 20:04.60 | 8:23.30 | 90360 | 128114
6 | 28:28.15 | 10:57.35 | 128115 | 177424
Track 1
Filename C:\! UPLOAD\Frank Lowe - Decision In Paradise (1985) [FLAC] {Soul Note}\01 - Decision In Paradise.wav
Pre-gap length 0:00:02.00
Peak level 81.8 %
Track quality 100.0 %
Test CRC 3FB10C29
Copy CRC 3FB10C29
Track not present in AccurateRip database
Copy OK
Track 2
Filename C:\! UPLOAD\Frank Lowe - Decision In Paradise (1985) [FLAC] {Soul Note}\02 - I'll Whistle Your Name.wav
Pre-gap length 0:00:03.60
Peak level 43.9 %
Track quality 100.0 %
Test CRC DA2C469E
Copy CRC DA2C469E
Accurately ripped (confidence 2) [6776C078]
Copy OK
Track 3
Filename C:\! UPLOAD\Frank Lowe - Decision In Paradise (1985) [FLAC] {Soul Note}\03 - Cherryco.wav
Pre-gap length 0:00:03.46
Peak level 63.0 %
Track quality 100.0 %
Test CRC 1290A0A6
Copy CRC 1290A0A6
Track not present in AccurateRip database
Copy OK
Track 4
Filename C:\! UPLOAD\Frank Lowe - Decision In Paradise (1985) [FLAC] {Soul Note}\04 - Lowe-ologie.wav
Pre-gap length 0:00:01.62
Peak level 92.9 %
Track quality 100.0 %
Test CRC DB2F7707
Copy CRC DB2F7707
Track not present in AccurateRip database
Copy OK
Track 5
Filename C:\! UPLOAD\Frank Lowe - Decision In Paradise (1985) [FLAC] {Soul Note}\05 - You Dig!.wav
Pre-gap length 0:00:01.86
Peak level 83.8 %
Track quality 99.9 %
Test CRC AA69A352
Copy CRC AA69A352
Track not present in AccurateRip database
Copy OK
Track 6
Filename C:\! UPLOAD\Frank Lowe - Decision In Paradise (1985) [FLAC] {Soul Note}\06 - Dues And Don'ts.wav
Pre-gap length 0:00:02.66
Peak level 82.8 %
Track quality 99.9 %
Test CRC DCE020A0
Copy CRC DCE020A0
Track not present in AccurateRip database
Copy OK
1 track(s) accurately ripped
5 track(s) not present in the AccurateRip database
Some tracks could not be verified as accurate
No errors occurred
End of status report
 
Содержание индексной карты (.CUE)
REM GENRE Jazz
REM DATE 1984
REM DISCID 40093D06
REM COMMENT "ExactAudioCopy v0.99pb5"
CATALOG 0000000000000
PERFORMER "Frank Lowe"
TITLE "Decision In Paradise"
FILE "01 - Decision In Paradise.wav" WAVE
TRACK 01 AUDIO
TITLE "Decision In Paradise"
PERFORMER "Frank Lowe"
FLAGS PRE
INDEX 01 00:00:00
TRACK 02 AUDIO
TITLE "I'll Whistle Your Name"
PERFORMER "Frank Lowe"
FLAGS PRE
INDEX 00 05:02:12
FILE "02 - I'll Whistle Your Name.wav" WAVE
INDEX 01 00:00:00
TRACK 03 AUDIO
TITLE "Cherryco"
PERFORMER "Frank Lowe"
FLAGS PRE
INDEX 00 03:23:68
FILE "03 - Cherryco.wav" WAVE
INDEX 01 00:00:00
TRACK 04 AUDIO
TITLE "Lowe-ologie"
PERFORMER "Frank Lowe"
FLAGS PRE
INDEX 00 06:02:00
FILE "04 - Lowe-ologie.wav" WAVE
INDEX 01 00:00:00
TRACK 05 AUDIO
TITLE "You Dig!"
PERFORMER "Frank Lowe"
FLAGS PRE
INDEX 00 05:26:13
FILE "05 - You Dig!.wav" WAVE
INDEX 01 00:00:00
TRACK 06 AUDIO
TITLE "Dues And Don'ts"
PERFORMER "Frank Lowe"
FLAGS PRE
INDEX 00 08:20:55
FILE "06 - Dues And Don'ts.wav" WAVE
INDEX 01 00:00:00
Доп. информация:
Recorded September 24 and 28, 1984 at Vanguard Studios, New York
 
Об альбоме (сборнике)
Deeply soulful blowing from tenorist Frank Lowe - working here in a wonderfully hip group that includes Don Cherry on pocket trumpet, Grachan Moncur III on trombone, Geri Allen on piano, Charnett Moffett on bass, and Charles Moffett on drums. The date really lives up to the promise you might expect from the players listed - and has a really classic, deep-rooted sound that makes the album feel like some lost avant set from a decade before - very well-crafted and thoughtful, with a great balance between focus and freedom. Lowe wrote most of the songs - and titles include "Decision In Paradise", "Cherryco", "I'll Whistle Your Name", "Lowe-ologie", "You Dig", and "Dues & Don'ts".
 
Состав
Frank Lowe - tenor saxophone
Don Cherry - pocket trumpet
Grachan Moncur III - trombone
Gerri Allen - piano
Charnette Moffett - bass
Charles Moffett - drums
По всем вопросам пишите личное сообщение пользователю M0p94ok.
14:14
240
Нет комментариев. Ваш будет первым!