Вы используете незарегистрированную версию компонента "Вкладки"!

Поиск

(Free Jazz) Brotzmann - Ellis - Eneidi - Krall - Live at Spruce Street Forum - 2002, FLAC (tracks+.cue), lossless

Треклист:
Brotzmann - Ellis - Eneidi - Krall - Live at Spruce Street Forum
Жанр: Free Jazz
Страна-производитель диска: USA
Год издания диска: 2002
Издатель (лейбл): Botticelli Records
Номер по каталогу: 1015
Аудиокодек: FLAC (*.flac)
Тип рипа: tracks+.cue
Битрейт аудио: lossless
Продолжительность: 57:09
Источник (релизер): собственный рип с оригинального диска.
Наличие сканов в содержимом раздачи: да
Треклист:
01. No.1 (16'03)
02. No.2 (15'24)
03. No.3 (2'29)
04. No.4 (12'40)
05. No.5 (10'34)
 
Лог создания рипа
Exact Audio Copy V0.99 prebeta 5 from 4. May 2009
EAC extraction logfile from 29. June 2011, 21:40
Brotzmann-Ellis-Eneidi-Krall / Live At The Spruce Street Forum
Used drive : TSSTcorpCDDVDW SH-S222A Adapter: 1 ID: 0
Read mode : Secure
Utilize accurate stream : Yes
Defeat audio cache : Yes
Make use of C2 pointers : No
Read offset correction : 6
Overread into Lead-In and Lead-Out : No
Fill up missing offset samples with silence : Yes
Delete leading and trailing silent blocks : No
Null samples used in CRC calculations : Yes
Used interface : Installed external ASPI interface
Gap handling : Appended to previous track
Used output format : User Defined Encoder
Selected bitrate : 768 kBit/s
Quality : High
Add ID3 tag : No
Command line compressor : C:\Tool\Compress\FLAC\flac.exe
Additional command line options : -8 -V -T "ARTIST=%a" -T "TITLE=%t" -T "ALBUM=%g" -T "DATE=%y" -T "TRACKNUMBER=%n" -T "TOTALTRACKS=%x" -T "GENRE=%m" -T "ALBUM ARTIST=%v" -T "COMMENT=EAC V0.99 prebeta 5, Secure Mode, Test & Copy, AccurateRip, FLAC -8" %s
TOC of the extracted CD
Track | Start | Length | Start sector | End sector
---------------------------------------------------------
1 | 0:00.00 | 16:02.58 | 0 | 72207
2 | 16:02.58 | 15:23.46 | 72208 | 141478
3 | 31:26.29 | 2:28.53 | 141479 | 152631
4 | 33:55.07 | 12:40.07 | 152632 | 209638
5 | 46:35.14 | 10:33.68 | 209639 | 257181
Track 1
Filename C:\! UPLOAD\Brotzmann-Ellis-Eneidi-Krall - Live at Spruce Street Forum (2002) [FLAC] {Botticelli}\01 - no. 1.wav
Pre-gap length 0:00:02.00
Peak level 97.7 %
Track quality 100.0 %
Test CRC CF6983CC
Copy CRC CF6983CC
Accurately ripped (confidence 1) [DC336261]
Copy OK
Track 2
Filename C:\! UPLOAD\Brotzmann-Ellis-Eneidi-Krall - Live at Spruce Street Forum (2002) [FLAC] {Botticelli}\02 - no. 2.wav
Peak level 97.7 %
Track quality 100.0 %
Test CRC 94410E41
Copy CRC 94410E41
Accurately ripped (confidence 1) [D8615625]
Copy OK
Track 3
Filename C:\! UPLOAD\Brotzmann-Ellis-Eneidi-Krall - Live at Spruce Street Forum (2002) [FLAC] {Botticelli}\03 - no. 3.wav
Peak level 97.7 %
Track quality 100.0 %
Test CRC 8042E74F
Copy CRC 8042E74F
Accurately ripped (confidence 1) [DA57A821]
Copy OK
Track 4
Filename C:\! UPLOAD\Brotzmann-Ellis-Eneidi-Krall - Live at Spruce Street Forum (2002) [FLAC] {Botticelli}\04 - no. 4.wav
Peak level 97.7 %
Track quality 99.9 %
Test CRC 8AB3EEA5
Copy CRC 8AB3EEA5
Accurately ripped (confidence 1) [99BF0F75]
Copy OK
Track 5
Filename C:\! UPLOAD\Brotzmann-Ellis-Eneidi-Krall - Live at Spruce Street Forum (2002) [FLAC] {Botticelli}\05 - no. 5.wav
Peak level 97.7 %
Track quality 99.9 %
Test CRC 497628CA
Copy CRC 497628CA
Accurately ripped (confidence 1) [4FECBD06]
Copy OK
All tracks accurately ripped
No errors occurred
End of status report
 
Содержание индексной карты (.CUE)
REM GENRE Jazz
REM DATE 2004
REM DISCID 530D6505
REM COMMENT "ExactAudioCopy v0.99pb5"
PERFORMER "Brotzmann-Ellis-Eneidi-Krall"
TITLE "Live At The Spruce Street Forum"
FILE "01 - no. 1.wav" WAVE
TRACK 01 AUDIO
TITLE "no. 1"
PERFORMER "Brotzmann-Ellis-Eneidi-Krall"
FLAGS DCP
INDEX 01 00:00:00
FILE "02 - no. 2.wav" WAVE
TRACK 02 AUDIO
TITLE "no. 2"
PERFORMER "Brotzmann-Ellis-Eneidi-Krall"
FLAGS DCP
INDEX 01 00:00:00
FILE "03 - no. 3.wav" WAVE
TRACK 03 AUDIO
TITLE "no. 3"
PERFORMER "Brotzmann-Ellis-Eneidi-Krall"
FLAGS DCP
INDEX 01 00:00:00
FILE "04 - no. 4.wav" WAVE
TRACK 04 AUDIO
TITLE "no. 4"
PERFORMER "Brotzmann-Ellis-Eneidi-Krall"
FLAGS DCP
INDEX 01 00:00:00
FILE "05 - no. 5.wav" WAVE
TRACK 05 AUDIO
TITLE "no. 5"
PERFORMER "Brotzmann-Ellis-Eneidi-Krall"
FLAGS DCP
INDEX 01 00:00:00
Доп. информация:
Recorded March 24, 2002 in San Diego, California.
 
Об альбоме (сборнике)
This live set with Brötzmann, Marco Eneidi, Lisle Ellis, and Jackson Krall took place at the Spruce Street Gallery in San Diego in the spring of 2002, on the heels of the four-day Glenn Spearman Music Festival in Oakland. There, over the course of four days, the musicians collaborated together in a variety of contexts (though not as a quartet), so when they hit the stage in San Diego, they were charged. From the first molten notes, the empathy between the group members is readily apparent.
Eneidi’s playing is often compared to Jimmy Lyons, his acknowledged mentor. And while Eneidi’s quicksilver alto lines certainly reflect Lyons’ influence, there is a hard-edged brightness to his playing that gives it a readily identifiable sound. Here, his angular jabs are the perfect foil to Brötzmann’s commanding roar, building with mounting energy into exclamatory flurries. Brötzmann joins in with hypercharged vigor, surging alongside Eneidi with blazing intensity.
Eneidi and Krall have been working together for over two decades, hooking up when the reed player first ventured to New York in the early 80s and their playing is totally synched. The drummer drives the music with a spirited force that courses like churning waves beneath the horns. Ellis is one of the overlooked masters of free jazz bass playing, and here he anchors the unit and propels it along with dark muscular lines that bound across the drummer’s free rhythms. Over the five untitled pieces, the quartet coalesces around the stabbing themes and stokes them to awesome crescendos. What could easily fall into simply a full-tilt blowing session rises to an exuberant collective celebration.
 
Состав
Peter Brötzmann - saxophones, clarinet
Marco Eneidi - alto saxophone
Lisle Ellis - double bass
Jackson Krall - drums
По всем вопросам пишите личное сообщение пользователю M0p94ok.
14:15
216
Нет комментариев. Ваш будет первым!