Вы используете незарегистрированную версию компонента "Вкладки"!

Поиск

1968 Marion Brown - Porto Novo (1994) {Black Lion BLCD 760200} [CD]

1968 Marion Brown - Porto Novo (1994) {Black Lion BLCD 760200} [CD]
Дата записи диска:
14 декабря 1967 - декабрь 1970
Дата издания диска:
1968
Дата переиздания диска:
1994
Издатель (лейбл):
Номер по каталогу:
BLCD 760200
Носитель:
CD
Тип рипа:
tracks
Аудиокодек:
FLAC (*.flac)
Битрейт аудио:
1
Время звучания:
56:15
Релизёр (источник):
собственный рип с оригинального диска
Треклист:
Треклист:
01. Similar Limits (6:25)
02. Sound Structure (6:08)
03. Improvisation (5:49)
04. Qbic (6:33)
05. Porto Novo (11:54)
06. And Then They Danced (16:11)
07. Rhythmus No. 1 (3:18)
 
Лог создания рипа
Exact Audio Copy V0.99 prebeta 5 from 4. May 2009
EAC extraction logfile from 1. July 2011, 9:14
Marion Brown / Porto novo
Used drive  : TSSTcorpCDDVDW SH-S222A   Adapter: 1  ID: 0
Read mode               : Secure
Utilize accurate stream : Yes
Defeat audio cache      : Yes
Make use of C2 pointers : No
Read offset correction                      : 6
Overread into Lead-In and Lead-Out          : No
Fill up missing offset samples with silence : Yes
Delete leading and trailing silent blocks   : No
Null samples used in CRC calculations       : Yes
Used interface                              : Installed external ASPI interface
Gap handling                                : Appended to previous track
Used output format              : User Defined Encoder
Selected bitrate                : 768 kBit/s
Quality                         : High
Add ID3 tag                     : No
Command line compressor         : C:\Tool\Compress\FLAC\flac.exe
Additional command line options : -8 -V -T "ARTIST=%a" -T "TITLE=%t" -T "ALBUM=%g" -T "DATE=%y" -T "TRACKNUMBER=%n" -T "TOTALTRACKS=%x" -T "GENRE=%m" -T "ALBUM ARTIST=%v" -T "COMMENT=EAC V0.99 prebeta 5, Secure Mode, Test & Copy, AccurateRip, FLAC -8" %s
TOC of the extracted CD
     Track |   Start  |  Length  | Start sector | End sector
    ---------------------------------------------------------
        1  |  0:00.00 |  6:25.28 |         0    |    28902
        2  |  6:25.28 |  6:08.05 |     28903    |    56507
        3  | 12:33.33 |  5:49.25 |     56508    |    82707
        4  | 18:22.58 |  6:33.30 |     82708    |   112212
        5  | 24:56.13 | 11:53.50 |    112213    |   165737
        6  | 36:49.63 | 16:10.55 |    165738    |   238542
        7  | 53:00.43 |  3:17.57 |    238543    |   253374
Track  1
     Filename C:\! UPLOAD\Marion Brown - Porto Novo (1994) [FLAC] {Black Lion}\01 - Similiar limits.wav
     Pre-gap length  0:00:02.00
     Peak level 71.8 %
     Track quality 100.0 %
     Test CRC 99EF872E
     Copy CRC 99EF872E
     Accurately ripped (confidence 1)  [F2133C4F]
     Copy OK
Track  2
     Filename C:\! UPLOAD\Marion Brown - Porto Novo (1994) [FLAC] {Black Lion}\02 - Sound structure.wav
     Peak level 64.3 %
     Track quality 100.0 %
     Test CRC 42ED0FAF
     Copy CRC 42ED0FAF
     Accurately ripped (confidence 1)  [5BF99591]
     Copy OK
Track  3
     Filename C:\! UPLOAD\Marion Brown - Porto Novo (1994) [FLAC] {Black Lion}\03 - Improvisation.wav
     Peak level 75.0 %
     Track quality 99.9 %
     Test CRC 59C545F6
     Copy CRC 59C545F6
     Accurately ripped (confidence 1)  [628F46E2]
     Copy OK
Track  4
     Filename C:\! UPLOAD\Marion Brown - Porto Novo (1994) [FLAC] {Black Lion}\04 - Qbic.wav
     Peak level 71.2 %
     Track quality 100.0 %
     Test CRC 89B09DBE
     Copy CRC 89B09DBE
     Accurately ripped (confidence 1)  [800D6CE9]
     Copy OK
Track  5
     Filename C:\! UPLOAD\Marion Brown - Porto Novo (1994) [FLAC] {Black Lion}\05 - Porto Novo.wav
     Peak level 72.2 %
     Track quality 100.0 %
     Test CRC 838C7074
     Copy CRC 838C7074
     Accurately ripped (confidence 1)  [42D95CA5]
     Copy OK
Track  6
     Filename C:\! UPLOAD\Marion Brown - Porto Novo (1994) [FLAC] {Black Lion}\06 - And then they danced.wav
     Peak level 74.5 %
     Track quality 100.0 %
     Test CRC 4EBE5857
     Copy CRC 4EBE5857
     Accurately ripped (confidence 1)  [2BEFA2D9]
     Copy OK
Track  7
     Filename C:\! UPLOAD\Marion Brown - Porto Novo (1994) [FLAC] {Black Lion}\07 - Rhythmus No. 1.wav
     Peak level 74.6 %
     Track quality 100.0 %
     Test CRC 9CC2B3E5
     Copy CRC 9CC2B3E5
     Accurately ripped (confidence 1)  [33AF441F]
     Copy OK
All tracks accurately ripped
No errors occurred
End of status report
 
 
Содержание индексной карты (.CUE)
REM GENRE Jazz
REM DATE 1967
REM DISCID 550D3207
REM COMMENT "ExactAudioCopy v0.99pb5"
PERFORMER "Marion Brown"
TITLE "Porto novo"
FILE "01 - Similiar limits.wav" WAVE
  TRACK 01 AUDIO
    TITLE "Similiar limits"
    PERFORMER "Marion Brown"
    INDEX 01 00:00:00
FILE "02 - Sound structure.wav" WAVE
  TRACK 02 AUDIO
    TITLE "Sound structure"
    PERFORMER "Marion Brown"
    INDEX 01 00:00:00
FILE "03 - Improvisation.wav" WAVE
  TRACK 03 AUDIO
    TITLE "Improvisation"
    PERFORMER "Marion Brown"
    INDEX 01 00:00:00
FILE "04 - Qbic.wav" WAVE
  TRACK 04 AUDIO
    TITLE "Qbic"
    PERFORMER "Marion Brown"
    INDEX 01 00:00:00
FILE "05 - Porto Novo.wav" WAVE
  TRACK 05 AUDIO
    TITLE "Porto Novo"
    PERFORMER "Marion Brown"
    INDEX 01 00:00:00
FILE "06 - And then they danced.wav" WAVE
  TRACK 06 AUDIO
    TITLE "And then they danced"
    PERFORMER "Marion Brown"
    INDEX 01 00:00:00
FILE "07 - Rhythmus No. 1.wav" WAVE
  TRACK 07 AUDIO
    TITLE "Rhythmus No. 1"
    PERFORMER "Marion Brown"
    INDEX 01 00:00:00
 
Об альбоме (сборнике)
It is a fantastic concert recording of the best free jazz when this music was breaking jazz and music rules. The sound of alto saxophonist Marion Brown is quite unique and Porto Novo is one of his best recorded example and also the first in which dutch percussionist Han Bennink's distinctive style is blooming . Please note that this album (Arista Freedom AL 1001)[Tracks 1-5] is a re-issue of the original album (Polydor - AB Productions - AB for Alan Bates) issued in Holland in 1968.
Состав:
  • Marion Brown — alto saxophone
  • Maarten van Regteren Altena — bass (tracks 1-5)
  • Han Bennink — drums (tracks 1-5)
  • Leo Smith — trumpet, percussion (tracks 6, 7)
  • Andre Van de Water Engineer
  • Foppe Damste Producer
  • Alan Bates Producer
  • Charles Fox Liner Notes
  • Charles Philip Fox Liner Notes

Доп. информация:
Tracks 1-5 recorded on 14th December, 1967 at Soest, Holland.
Tracks 6 & 7 recorded on December 1970

По всем вопросам пишите личное сообщение пользователю M0p94ok.
14:14
534
Нет комментариев. Ваш будет первым!