Поиск

(Free Improvisation) Rob Brown Trio - High Wire - 1996, FLAC (tracks+.cue), lossless

Треклист:
Rob Brown Trio - High Wire
Жанр: Free Improvisation
Страна-производитель диска: Italy
Год издания диска: 1996
Издатель (лейбл): Soul Note Records
Номер по каталогу: SN 121 266-2
Аудиокодек: FLAC (*.flac)
Тип рипа: tracks+.cue
Битрейт аудио: lossless
Продолжительность: 59:24
Источник (релизер): собственный рип с оригинального диска.
Наличие сканов в содержимом раздачи: да
Треклист:
01. Hex Key (11:54)
02. Totter (7:39)
03. Revealing (7:38)
04. Just a Touch (11:51)
05. Turmoil (10:31)
06. Trickster (9:51)
 
Лог создания рипа
Exact Audio Copy V0.99 prebeta 5 from 4. May 2009
EAC extraction logfile from 1. July 2011, 0:51
Rob Brown Trio / High Wire
Used drive : TSSTcorpCDDVDW SH-S222A Adapter: 1 ID: 0
Read mode : Secure
Utilize accurate stream : Yes
Defeat audio cache : Yes
Make use of C2 pointers : No
Read offset correction : 6
Overread into Lead-In and Lead-Out : No
Fill up missing offset samples with silence : Yes
Delete leading and trailing silent blocks : No
Null samples used in CRC calculations : Yes
Used interface : Installed external ASPI interface
Gap handling : Appended to previous track
Used output format : User Defined Encoder
Selected bitrate : 768 kBit/s
Quality : High
Add ID3 tag : No
Command line compressor : C:\Tool\Compress\FLAC\flac.exe
Additional command line options : -8 -V -T "ARTIST=%a" -T "TITLE=%t" -T "ALBUM=%g" -T "DATE=%y" -T "TRACKNUMBER=%n" -T "TOTALTRACKS=%x" -T "GENRE=%m" -T "ALBUM ARTIST=%v" -T "COMMENT=EAC V0.99 prebeta 5, Secure Mode, Test & Copy, AccurateRip, FLAC -8" %s
TOC of the extracted CD
Track | Start | Length | Start sector | End sector
---------------------------------------------------------
1 | 0:00.33 | 11:54.50 | 33 | 53632
2 | 11:55.08 | 7:39.50 | 53633 | 88107
3 | 19:34.58 | 7:38.12 | 88108 | 122469
4 | 27:12.70 | 11:51.00 | 122470 | 175794
5 | 39:03.70 | 10:31.70 | 175795 | 223189
6 | 49:35.65 | 9:51.43 | 223190 | 267557
Track 1
Filename C:\! UPLOAD\Rob Brown Trio - High Wire (1996) [FLAC] {Soul Note}\01 - Hex Key.wav
Pre-gap length 0:00:02.44
Peak level 100.0 %
Track quality 100.0 %
Test CRC BDD033D0
Copy CRC BDD033D0
Accurately ripped (confidence 2) [C39EFD09]
Copy OK
Track 2
Filename C:\! UPLOAD\Rob Brown Trio - High Wire (1996) [FLAC] {Soul Note}\02 - Totter.wav
Peak level 88.6 %
Track quality 100.0 %
Test CRC 17BBEECF
Copy CRC 17BBEECF
Accurately ripped (confidence 2) [9A3F2AD1]
Copy OK
Track 3
Filename C:\! UPLOAD\Rob Brown Trio - High Wire (1996) [FLAC] {Soul Note}\03 - Revealing.wav
Peak level 89.0 %
Track quality 100.0 %
Test CRC 69545A65
Copy CRC 69545A65
Accurately ripped (confidence 2) [85835F47]
Copy OK
Track 4
Filename C:\! UPLOAD\Rob Brown Trio - High Wire (1996) [FLAC] {Soul Note}\04 - Just A Touch.wav
Peak level 91.8 %
Track quality 100.0 %
Test CRC 83FF5336
Copy CRC 83FF5336
Accurately ripped (confidence 2) [9B7323EE]
Copy OK
Track 5
Filename C:\! UPLOAD\Rob Brown Trio - High Wire (1996) [FLAC] {Soul Note}\05 - Turmoil.wav
Peak level 57.7 %
Track quality 99.9 %
Test CRC E9D13473
Copy CRC E9D13473
Accurately ripped (confidence 2) [3C96BDFA]
Copy OK
Track 6
Filename C:\! UPLOAD\Rob Brown Trio - High Wire (1996) [FLAC] {Soul Note}\06 - Trickster.wav
Peak level 91.7 %
Track quality 100.0 %
Test CRC 8A064D11
Copy CRC 8A064D11
Accurately ripped (confidence 2) [A33CA1ED]
Copy OK
All tracks accurately ripped
No errors occurred
End of status report
 
Содержание индексной карты (.CUE)
REM GENRE Jazz
REM DATE 1996
REM DISCID 550DEF06
REM COMMENT "ExactAudioCopy v0.99pb5"
PERFORMER "Rob Brown Trio"
TITLE "High Wire"
FILE "01 - Hex Key.wav" WAVE
TRACK 01 AUDIO
TITLE "Hex Key"
PERFORMER "Rob Brown Trio"
PREGAP 00:00:33
INDEX 01 00:00:00
FILE "02 - Totter.wav" WAVE
TRACK 02 AUDIO
TITLE "Totter"
PERFORMER "Rob Brown Trio"
INDEX 01 00:00:00
FILE "03 - Revealing.wav" WAVE
TRACK 03 AUDIO
TITLE "Revealing"
PERFORMER "Rob Brown Trio"
INDEX 01 00:00:00
FILE "04 - Just A Touch.wav" WAVE
TRACK 04 AUDIO
TITLE "Just A Touch"
PERFORMER "Rob Brown Trio"
INDEX 01 00:00:00
FILE "05 - Turmoil.wav" WAVE
TRACK 05 AUDIO
TITLE "Turmoil"
PERFORMER "Rob Brown Trio"
INDEX 01 00:00:00
FILE "06 - Trickster.wav" WAVE
TRACK 06 AUDIO
TITLE "Trickster"
PERFORMER "Rob Brown Trio"
INDEX 01 00:00:00
Доп. информация:
Recorded on July 22, 1993 at Tom Tedesco's Studio, N.J.
 
Об альбоме (сборнике)
"...one of the most frustrating aspects about free jazz is distinguishing the true innovators and torchbearers from the trifling charlatans....Luckily there's altoist Rob Brown, whose latest recording HIGH WIRE transcends far beyond the realm of bombastic dystopia....Highly recommended."
 
Состав
Rob Brown - alto sax
William Parker - bass
Jackson Krall - drums
По всем вопросам пишите личное сообщение пользователю M0p94ok.
14:13
230
Нет комментариев. Ваш будет первым!