Вы используете незарегистрированную версию компонента "Вкладки"!

Поиск

(Free Jazz, FMP) [CD] Cecil Taylor & Günter (Gunter) Sommer — In East-Berlin — 1989, FLAC (tracks+.cue), lossless

(Free Jazz, FMP) [CD] Cecil Taylor & Günter (Gunter) Sommer — In East-Berlin — 1989, FLAC (tracks+.cue), lossless
Треклист:
Cecil Taylor & Günter (Gunter) Sommer / In East-Berlin
Жанр: Free Jazz, FMP
Носитель: CD
Страна-производитель диска: Germany
Год издания: 1989
Издатель (лейбл): FMP ‎
Номер по каталогу: FMP CD 13/14
Аудиокодек: FLAC (*.flac)
Тип рипа: tracks+.cue
Битрейт аудио: lossless
Продолжительность: 2:24:58
Источник (релизер): what.cd
Наличие сканов в содержимом раздачи: да
Треклист:
 
Disc 1
Cecil Taylor solo
1-1 Reinforced Concrete Part 1 13:46
1-2 Reinforced Concrete Part 2 20:33
1-3 Reinforced Concrete Part 3 30:22
1-4 Stone Part 1 1:47
1-5 Stone Part 2 1:13
1-6 Stone Part 3 1:13
1-7 The Old Canal 2:00
1-8 Stone Part 4 1:47
21 juin 1988, Deutsches Theater / Kammerspiele, Berlin
 
Disc 2
Cecil Taylor — Günter Sommer
2-1 Puuc Part 1 38:29
2-2 Puuc Part 2 22:37
2-3 Puuc Part 3 11:07
26 juin 1988, Kongresshalle, Berlin
 
Лог создания рипа

 
Disc 1
EAC extraction logfile from 29. January 2009, 12:28 for CD
Cecil Taylor / In East-Berlin - Solo
Used drive : PBDS CDRWDVD DH-48C2S Adapter: 1 ID: 1
Read mode : Secure with NO C2, accurate stream, disable cache
Read offset correction : 6
Overread into Lead-In and Lead-Out : No
Used output format : C:\Program Files\FLAC\flac.exe (User Defined Encoder)
128 kBit/s
Additional command line options : -V -8 -T "artist=%a" -T "title=%t" -T "album=%g" -T "date=%y" -T "tracknumber=%n" -T "genre=%m" %s
Other options :
Fill up missing offset samples with silence : Yes
Delete leading and trailing silent blocks : No
Native Win32 interface for Win NT & 2000
Track 1
Filename D:\DOWNLOADS\_UPLOADS\Cecil Taylor - In East-Berlin - Solo (1989) [FLAC]\01 - Reinforced Concrete Part 1.wav
Pre-gap length 0:00:02.00
Peak level 62.8 %
Track quality 100.0 %
Test CRC 0C02FF6C
Copy CRC 0C02FF6C
Copy OK
Track 2
Filename D:\DOWNLOADS\_UPLOADS\Cecil Taylor - In East-Berlin - Solo (1989) [FLAC]\02 - Reinforced Concrete Part 2.wav
Pre-gap length 0:00:02.86
Peak level 72.0 %
Track quality 99.9 %
Test CRC 9CACB218
Copy CRC 9CACB218
Copy OK
Track 3
Filename D:\DOWNLOADS\_UPLOADS\Cecil Taylor - In East-Berlin - Solo (1989) [FLAC]\03 - Reinforced Concrete Part 3.wav
Peak level 82.2 %
Track quality 100.0 %
Test CRC CE162824
Copy CRC CE162824
Copy OK
Track 4
Filename D:\DOWNLOADS\_UPLOADS\Cecil Taylor - In East-Berlin - Solo (1989) [FLAC]\04 - Stone Part 1.wav
Peak level 80.8 %
Track quality 100.0 %
Test CRC 59CDFE67
Copy CRC 59CDFE67
Copy OK
Track 5
Filename D:\DOWNLOADS\_UPLOADS\Cecil Taylor - In East-Berlin - Solo (1989) [FLAC]\05 - Stone Part 2.wav
Peak level 65.5 %
Track quality 100.0 %
Test CRC FD903B80
Copy CRC FD903B80
Copy OK
Track 6
Filename D:\DOWNLOADS\_UPLOADS\Cecil Taylor - In East-Berlin - Solo (1989) [FLAC]\06 - Stone Part 3.wav
Peak level 67.7 %
Track quality 99.8 %
Test CRC 00ABD9CE
Copy CRC 00ABD9CE
Copy OK
Track 7
Filename D:\DOWNLOADS\_UPLOADS\Cecil Taylor - In East-Berlin - Solo (1989) [FLAC]\07 - The Old Canal.wav
Peak level 55.7 %
Track quality 100.0 %
Test CRC 6CB8D2BB
Copy CRC 6CB8D2BB
Copy OK
Track 8
Filename D:\DOWNLOADS\_UPLOADS\Cecil Taylor - In East-Berlin - Solo (1989) [FLAC]\08 - Stone Part 4.wav
Peak level 68.5 %
Track quality 100.0 %
Test CRC FC1F3237
Copy CRC FC1F3237
Copy OK
No errors occured
End of status report
 
Disc 2
EAC extraction logfile from 29. January 2009, 12:01 for CD
Cecil Taylor-Gunter Sommer / In East-Berlin (Disc 2)
Used drive : PBDS CDRWDVD DH-48C2S Adapter: 1 ID: 1
Read mode : Secure with NO C2, accurate stream, disable cache
Read offset correction : 6
Overread into Lead-In and Lead-Out : No
Used output format : C:\Program Files\FLAC\flac.exe (User Defined Encoder)
128 kBit/s
Additional command line options : -V -8 -T "artist=%a" -T "title=%t" -T "album=%g" -T "date=%y" -T "tracknumber=%n" -T "genre=%m" %s
Other options :
Fill up missing offset samples with silence : Yes
Delete leading and trailing silent blocks : No
Native Win32 interface for Win NT & 2000
Track 1
Filename D:\DOWNLOADS\_UPLOADS\Cecil Taylor-Gunter Sommer - In East-Berlin (Disc 2) (1989) [FLAC]\01 - Puuc - Part 1.wav
Pre-gap length 0:00:02.00
Peak level 88.7 %
Track quality 100.0 %
Test CRC 451DBB0A
Copy CRC 451DBB0A
Copy OK
Track 2
Filename D:\DOWNLOADS\_UPLOADS\Cecil Taylor-Gunter Sommer - In East-Berlin (Disc 2) (1989) [FLAC]\02 - Puuc - Part 2.wav
Pre-gap length 0:00:03.29
Peak level 80.9 %
Track quality 100.0 %
Test CRC 9293772F
Copy CRC 9293772F
Copy OK
Track 3
Filename D:\DOWNLOADS\_UPLOADS\Cecil Taylor-Gunter Sommer - In East-Berlin (Disc 2) (1989) [FLAC]\03 - Puuc - Part 3.wav
Peak level 99.0 %
Track quality 100.0 %
Test CRC ABF5CBEC
Copy CRC ABF5CBEC
Copy OK
No errors occured
End of status report
 
Содержание индексной карты (.CUE)

 
Disc 1
REM GENRE Jazz
REM DATE 1989
REM DISCID 7E110D08
REM COMMENT "ExactAudioCopy v0.95b3"
PERFORMER "Cecil Taylor"
TITLE "In East-Berlin - Solo"
FILE "01 - Reinforced Concrete Part 1.wav" WAVE
TRACK 01 AUDIO
TITLE "Reinforced Concrete Part 1"
PERFORMER "Cecil Taylor"
INDEX 01 00:00:00
TRACK 02 AUDIO
TITLE "Reinforced Concrete Part 2"
PERFORMER "Cecil Taylor"
INDEX 00 13:43:60
FILE "02 - Reinforced Concrete Part 2.wav" WAVE
INDEX 01 00:00:00
FILE "03 - Reinforced Concrete Part 3.wav" WAVE
TRACK 03 AUDIO
TITLE "Reinforced Concrete Part 3"
PERFORMER "Cecil Taylor"
INDEX 01 00:00:00
FILE "04 - Stone Part 1.wav" WAVE
TRACK 04 AUDIO
TITLE "Stone Part 1"
PERFORMER "Cecil Taylor"
INDEX 01 00:00:00
FILE "05 - Stone Part 2.wav" WAVE
TRACK 05 AUDIO
TITLE "Stone Part 2"
PERFORMER "Cecil Taylor"
INDEX 01 00:00:00
FILE "06 - Stone Part 3.wav" WAVE
TRACK 06 AUDIO
TITLE "Stone Part 3"
PERFORMER "Cecil Taylor"
INDEX 01 00:00:00
FILE "07 - The Old Canal.wav" WAVE
TRACK 07 AUDIO
TITLE "The Old Canal"
PERFORMER "Cecil Taylor"
INDEX 01 00:00:00
FILE "08 - Stone Part 4.wav" WAVE
TRACK 08 AUDIO
TITLE "Stone Part 4"
PERFORMER "Cecil Taylor"
INDEX 01 00:00:00
 
Disc 2
REM GENRE jazz
REM DATE 1989
REM DISCID 2010ED03
REM COMMENT "ExactAudioCopy v0.95b3"
PERFORMER "Cecil Taylor-Gunter Sommer"
TITLE "In East-Berlin (Disc 2)"
FILE "01 - Puuc - Part 1.wav" WAVE
TRACK 01 AUDIO
TITLE "Puuc - Part 1"
PERFORMER "Cecil Taylor-Gunter Sommer"
INDEX 01 00:00:00
TRACK 02 AUDIO
TITLE "Puuc - Part 2"
PERFORMER "Cecil Taylor-Gunter Sommer"
INDEX 00 38:25:53
FILE "02 - Puuc - Part 2.wav" WAVE
INDEX 01 00:00:00
FILE "03 - Puuc - Part 3.wav" WAVE
TRACK 03 AUDIO
TITLE "Puuc - Part 3"
PERFORMER "Cecil Taylor-Gunter Sommer"
INDEX 01 00:00:00
 
Состав
Cecil Taylor — piano
Günter Sommer — drums
По всем вопросам пишите личное сообщение пользователю M0p94ok.
00:53
153
Нет комментариев. Ваш будет первым!