Вы используете незарегистрированную версию компонента "Вкладки"!

Поиск

(Free Jazz) [CD] The Charles Gayle Trio - Live at Disobey - 1994, FLAC (tracks+.cue), lossless

(Free Jazz) [CD] The Charles Gayle Trio - Live at Disobey - 1994, FLAC (tracks+.cue), lossless
Треклист:
The Charles Gayle Trio / Live at Disobey
Жанр: Free Jazz
Страна: US
Носитель: CD
Страна-производитель диска: UK
Год издания: 1994
Издатель (лейбл): Blast First
Номер по каталогу: BFFP 100 CD
Аудиокодек: FLAC (*.flac)
Тип рипа: tracks+.cue
Битрейт аудио: lossless
Продолжительность: 01:06:57
Источник (релизер): what.cd (Cohelmec 3)
Наличие сканов в содержимом раздачи: нет
Треклист:
1. Holy Faith
2. Psalm Prayer
3. Hymn of Redemption
Recorded 23 March 1994 at "Disobey", Upstairs At The Garage, Highbury. London
 
Состав
Hilliard Green, bass, voice
Michael Wimberley, drums
Charles Gayle, tenor saxophone, voice
 
EAC log
Exact Audio Copy V0.99 prebeta 5 from 4. May 2009
EAC extraction logfile from 30. April 2010, 0:41
Charles Gayle Trio / Live at Disobey
Used drive : MATSHITABD-RE UJ-225S Adapter: 0 ID: 0
Read mode : Secure
Utilize accurate stream : Yes
Defeat audio cache : Yes
Make use of C2 pointers : No
Read offset correction : 102
Overread into Lead-In and Lead-Out : No
Fill up missing offset samples with silence : Yes
Delete leading and trailing silent blocks : No
Null samples used in CRC calculations : Yes
Used interface : Native Win32 interface for Win NT & 2000
Gap handling : Appended to previous track
Used output format : User Defined Encoder
Selected bitrate : 768 kBit/s
Quality : High
Add ID3 tag : No
Command line compressor : C:\Users\Derek\Downloads\eac-0.99pb5\FLAC\FLAC.EXE
Additional command line options : -6 -V -T "ARTIST=%a" -T "TITLE=%t" -T "ALBUM=%g" -T "DATE=%y" -T "TRACKNUMBER=%n" -T "GENRE=%m" -T "COMMENT=%e" %s -o %d
TOC of the extracted CD
Track | Start | Length | Start sector | End sector
---------------------------------------------------------
1 | 0:00.00 | 23:08.35 | 0 | 104134
2 | 23:08.35 | 11:43.57 | 104135 | 156916
3 | 34:52.17 | 32:06.45 | 156917 | 301411
Track 1
Filename C:\FLAC\Gayle, Charles\Live at Disobey\01. Holy Faith.wav
Pre-gap length 0:00:02.00
Peak level 99.9 %
Track quality 99.9 %
Test CRC 4D2DD8B4
Copy CRC 4D2DD8B4
Track not present in AccurateRip database
Copy OK
Track 2
Filename C:\FLAC\Gayle, Charles\Live at Disobey\02. Psalm Prayer.wav
Peak level 94.0 %
Track quality 100.0 %
Test CRC 3118EE7B
Copy CRC 3118EE7B
Track not present in AccurateRip database
Copy OK
Track 3
Filename C:\FLAC\Gayle, Charles\Live at Disobey\03. Hymn of Redemption.wav
Peak level 100.0 %
Track quality 100.0 %
Test CRC 48E2281D
Copy CRC 48E2281D
Track not present in AccurateRip database
Copy OK
None of the tracks are present in the AccurateRip database
No errors occurred
End of status report
 
Содержание индексной карты (.CUE)
REM GENRE Free-jazz/improvisation
REM DATE 1994
REM DISCID 1E0FB203
REM COMMENT "ExactAudioCopy v0.99pb5"
PERFORMER "Charles Gayle Trio"
TITLE "Live at Disobey"
FILE "01. Holy Faith.wav" WAVE
TRACK 01 AUDIO
TITLE "Holy Faith"
PERFORMER "Charles Gayle Trio"
INDEX 01 00:00:00
FILE "02. Psalm Prayer.wav" WAVE
TRACK 02 AUDIO
TITLE "Psalm Prayer"
PERFORMER "Charles Gayle Trio"
INDEX 01 00:00:00
FILE "03. Hymn of Redemption.wav" WAVE
TRACK 03 AUDIO
TITLE "Hymn of Redemption"
PERFORMER "Charles Gayle Trio"
INDEX 01 00:00:00
_
спасибо, sander996!
По всем вопросам пишите личное сообщение пользователю M0p94ok.
00:53
163
Нет комментариев. Ваш будет первым!