Вы используете незарегистрированную версию компонента "Вкладки"!

Поиск

(Avant-Garde) [CD] Switters (Gianni Gebbia, Vincenzo Vasi, Francesco Cusa) - Current Trends in the Contemporary Italian Music Disaster - 2008, FLAC (tracks+.cue), lossless

(Avant-Garde) [CD] Switters (Gianni Gebbia, Vincenzo Vasi, Francesco Cusa) - Current Trends in the Contemporary Italian Music Disaster - 2008, FLAC (tracks+.cue), lossless
Треклист:
Switters / Current Trends in the Contemporary Italian Music Disaster
Жанр: Avant-Garde
Носитель: CD
Страна-производитель диска: Italy
Год издания: 2008
Издатель (лейбл): Improvvisatore Involontario
Номер по каталогу: 0011
Аудиокодек: FLAC (*.flac)
Тип рипа: tracks+.cue
Битрейт аудио: lossless
Продолжительность: 1:06:37
Источник (релизер): я
Наличие сканов в содержимом раздачи: да
Треклист:
01. Koliko koŠta talianski giezz? 3:50
02. Ragazzo Giezz 4:13
03. Exterminator Angel 1:11
04. Call Center Woman 2:47
05. Allevi giovani allievi 1 2:58
06. Why Ornette Would Be Unknown Today 4:28
07. Handbook of the Modern Jazz Player 3:22
08. Sono contro le Multinazionali 4:34
09. Poor Look & Celebrity 2:57
10. Paris Hilton’s Fundaments of Economy 4:04
11. Italian Sadness Inc. 3:09
12. Festival Director Looking for a New Job 4:20
13. Afro Groove Masturbation 3:39
14. Rock 1:41
15. Marketing dell’autenticità 2:31
16. Falsa alternativa 8:18
17. Gerontocrazia e feticismo 3:42
18. Allevi giovani allievi 2 4:56
All compositions by Cusa-Gebbia-Vasi. Lyrics by Francesco Cusa.
Recorded in 2007 at Mu Rec studio, Milano.
Jòraku Gianni Gebbia – Alto Saxophone & Flute
Vincenzo Vasi – Theremin, Voice, Electric Bass
Francesco Cusa – Drums
Special guests:
Xabier Iriondo – Mahai Metak table guitar on track 12, Thingamagoop portable synth on tracks 14 and 16
Wu Ming 1 - Speech on track 1
 
Лог создания рипа
Exact Audio Copy V1.0 beta 3 from 29. August 2011
EAC extraction logfile from 2. April 2014, 22:07
Switters / Current Trends in the Contemporary Italian Music Disaster
Used drive : SlimtypeeNAU508 5 Adapter: 1 ID: 0
Read mode : Secure
Utilize accurate stream : Yes
Defeat audio cache : Yes
Make use of C2 pointers : No
Read offset correction : 6
Overread into Lead-In and Lead-Out : No
Fill up missing offset samples with silence : Yes
Delete leading and trailing silent blocks : No
Null samples used in CRC calculations : Yes
Used interface : Native Win32 interface for Win NT & 2000
Gap handling : Appended to previous track
Used output format : User Defined Encoder
Selected bitrate : 768 kBit/s
Quality : High
Add ID3 tag : No
Command line compressor : C:\Program Files (x86)\Exact Audio Copy\Flac\flac.exe
Additional command line options : -8 -V -T "ARTIST=%artist%" -T "TITLE=%title%" -T "ALBUM=%albumtitle%" -T "DATE=%year%" -T "TRACKNUMBER=%tracknr%" -T "TOTALTRACKS=%numtracks%" -T "GENRE=%genre%" -T "ALBUMARTIST=%albumartist%" -T "ALBUM ARTIST=%albumartist%" -T "COMMENT=EAC Secure Mode, Test & Copy, AccurateRip, FLAC -8" %source%
TOC of the extracted CD
Track | Start | Length | Start sector | End sector
---------------------------------------------------------
1 | 0:00.00 | 3:49.47 | 0 | 17221
2 | 3:49.47 | 4:12.60 | 17222 | 36181
3 | 8:02.32 | 1:11.10 | 36182 | 41516
4 | 9:13.42 | 2:46.41 | 41517 | 54007
5 | 12:00.08 | 2:57.55 | 54008 | 67337
6 | 14:57.63 | 4:27.55 | 67338 | 87417
7 | 19:25.43 | 3:21.65 | 87418 | 102557
8 | 22:47.33 | 4:34.11 | 102558 | 123118
9 | 27:21.44 | 2:56.71 | 123119 | 136389
10 | 30:18.40 | 4:04.02 | 136390 | 154691
11 | 34:22.42 | 3:08.48 | 154692 | 168839
12 | 37:31.15 | 4:20.14 | 168840 | 188353
13 | 41:51.29 | 3:39.09 | 188354 | 204787
14 | 45:30.38 | 1:40.53 | 204788 | 212340
15 | 47:11.16 | 2:30.56 | 212341 | 223646
16 | 49:41.72 | 8:17.66 | 223647 | 260987
17 | 57:59.63 | 3:41.40 | 260988 | 277602
18 | 61:41.28 | 4:55.73 | 277603 | 299800
Track 1
Filename C:\EAC rips\01 - Koliko koSta talianski giezz_.wav
Pre-gap length 0:00:02.00
Peak level 100.0 %
Extraction speed 1.1 X
Track quality 100.0 %
Test CRC 9F9AEB51
Copy CRC 9F9AEB51
Track not present in AccurateRip database
Copy OK
Track 2
Filename C:\EAC rips\02 - Ragazzo Giezz.wav
Peak level 96.6 %
Extraction speed 1.2 X
Track quality 100.0 %
Test CRC 0D2BFBED
Copy CRC 0D2BFBED
Track not present in AccurateRip database
Copy OK
Track 3
Filename C:\EAC rips\03 - Exterminator Angel.wav
Pre-gap length 0:00:02.00
Peak level 96.5 %
Extraction speed 1.0 X
Track quality 100.0 %
Test CRC 0ED1934F
Copy CRC 0ED1934F
Track not present in AccurateRip database
Copy OK
Track 4
Filename C:\EAC rips\04 - Call Center Woman.wav
Pre-gap length 0:00:01.00
Peak level 96.5 %
Extraction speed 1.3 X
Track quality 100.0 %
Test CRC 4933E8B3
Copy CRC 4933E8B3
Track not present in AccurateRip database
Copy OK
Track 5
Filename C:\EAC rips\05 - Allevi giovani allievi 1.wav
Pre-gap length 0:00:01.00
Peak level 96.6 %
Extraction speed 1.4 X
Track quality 100.0 %
Test CRC C681FB67
Copy CRC C681FB67
Track not present in AccurateRip database
Copy OK
Track 6
Filename C:\EAC rips\06 - Why Ornette Would Be Unknown Today.wav
Pre-gap length 0:00:03.00
Peak level 96.5 %
Extraction speed 1.5 X
Track quality 100.0 %
Test CRC C4807425
Copy CRC C4807425
Track not present in AccurateRip database
Copy OK
Track 7
Filename C:\EAC rips\07 - Handbook of the Modern Jazz Player.wav
Pre-gap length 0:00:02.00
Peak level 96.6 %
Extraction speed 1.3 X
Track quality 99.9 %
Test CRC 2489DA80
Copy CRC 2489DA80
Track not present in AccurateRip database
Copy OK
Track 8
Filename C:\EAC rips\08 - Sono contro le Multinazionali.wav
Pre-gap length 0:00:02.00
Peak level 96.6 %
Extraction speed 1.7 X
Track quality 100.0 %
Test CRC D91AEEAC
Copy CRC D91AEEAC
Track not present in AccurateRip database
Copy OK
Track 9
Filename C:\EAC rips\09 - Poor Look & Celebrity.wav
Pre-gap length 0:00:02.00
Peak level 96.5 %
Extraction speed 1.4 X
Track quality 99.9 %
Test CRC A4DF6D77
Copy CRC A4DF6D77
Track not present in AccurateRip database
Copy OK
Track 10
Filename C:\EAC rips\10 - Paris Hilton's Fundaments of Economy.wav
Pre-gap length 0:00:01.00
Peak level 96.5 %
Extraction speed 1.6 X
Track quality 99.9 %
Test CRC DA097C6F
Copy CRC DA097C6F
Track not present in AccurateRip database
Copy OK
Track 11
Filename C:\EAC rips\11 - Italian Sadness Inc..wav
Pre-gap length 0:00:03.00
Peak level 96.5 %
Extraction speed 1.8 X
Track quality 100.0 %
Test CRC 6F9AF8B6
Copy CRC 6F9AF8B6
Track not present in AccurateRip database
Copy OK
Track 12
Filename C:\EAC rips\12 - Festival Director Looking for a New Job.wav
Pre-gap length 0:00:04.00
Peak level 96.5 %
Extraction speed 2.0 X
Track quality 100.0 %
Test CRC 7B60C4CC
Copy CRC 7B60C4CC
Track not present in AccurateRip database
Copy OK
Track 13
Filename C:\EAC rips\13 - Afro Groove Masturbation.wav
Pre-gap length 0:00:02.00
Peak level 96.5 %
Extraction speed 1.7 X
Track quality 99.9 %
Test CRC 0D4755B4
Copy CRC 0D4755B4
Track not present in AccurateRip database
Copy OK
Track 14
Filename C:\EAC rips\14 - Rock.wav
Pre-gap length 0:00:02.00
Peak level 96.6 %
Extraction speed 1.7 X
Track quality 100.0 %
Test CRC 7D8908DF
Copy CRC 7D8908DF
Track not present in AccurateRip database
Copy OK
Track 15
Filename C:\EAC rips\15 - Marketing dell'autenticità.wav
Peak level 96.5 %
Extraction speed 1.6 X
Track quality 99.9 %
Test CRC CDD7D501
Copy CRC CDD7D501
Track not present in AccurateRip database
Copy OK
Track 16
Filename C:\EAC rips\16 - Falsa alternativa.wav
Pre-gap length 0:00:02.00
Peak level 96.6 %
Extraction speed 2.4 X
Track quality 100.0 %
Test CRC 03634C68
Copy CRC 03634C68
Track not present in AccurateRip database
Copy OK
Track 17
Filename C:\EAC rips\17 - Gerontocrazia e feticismo.wav
Pre-gap length 0:00:02.00
Peak level 96.5 %
Extraction speed 2.2 X
Track quality 100.0 %
Test CRC 853744FB
Copy CRC 853744FB
Track not present in AccurateRip database
Copy OK
Track 18
Filename C:\EAC rips\18 - Allevi giovani allievi 2.wav
Pre-gap length 0:00:03.00
Peak level 96.6 %
Extraction speed 2.4 X
Track quality 100.0 %
Test CRC AD85CB1C
Copy CRC AD85CB1C
Track not present in AccurateRip database
Copy OK
None of the tracks are present in the AccurateRip database
No errors occurred
End of status report
---- CUETools DB Plugin V2.1.4
[CTDB TOCID: o2TopU0oFlByBdxSpJkx0iHRLsI-] disk not present in database
Submit result: o2TopU0oFlByBdxSpJkx0iHRLsI- has been uploaded
==== Log checksum 5D040231849EE52BB55D43C61788DC0CBFA4298D7355A54079B651AE4EC5FD25 ====
 
Содержание индексной карты (.CUE)
REM GENRE Jazz
REM DATE 2008
REM DISCID FB0F9D12
REM COMMENT "ExactAudioCopy v1.0b3"
PERFORMER "Switters"
TITLE "Current Trends in the Contemporary Italian Music Disaster"
FILE "01 - Koliko koSta talianski giezz_.wav" WAVE
TRACK 01 AUDIO
TITLE "Koliko koSta talianski giezz?"
PERFORMER "Switters"
INDEX 01 00:00:00
FILE "02 - Ragazzo Giezz.wav" WAVE
TRACK 02 AUDIO
TITLE "Ragazzo Giezz"
PERFORMER "Switters"
INDEX 01 00:00:00
TRACK 03 AUDIO
TITLE "Exterminator Angel"
PERFORMER "Switters"
INDEX 00 04:10:60
FILE "03 - Exterminator Angel.wav" WAVE
INDEX 01 00:00:00
TRACK 04 AUDIO
TITLE "Call Center Woman"
PERFORMER "Switters"
INDEX 00 01:10:10
FILE "04 - Call Center Woman.wav" WAVE
INDEX 01 00:00:00
TRACK 05 AUDIO
TITLE "Allevi giovani allievi 1"
PERFORMER "Switters"
INDEX 00 02:45:41
FILE "05 - Allevi giovani allievi 1.wav" WAVE
INDEX 01 00:00:00
TRACK 06 AUDIO
TITLE "Why Ornette Would Be Unknown Today"
PERFORMER "Switters"
INDEX 00 02:54:55
FILE "06 - Why Ornette Would Be Unknown Today.wav" WAVE
INDEX 01 00:00:00
TRACK 07 AUDIO
TITLE "Handbook of the Modern Jazz Player"
PERFORMER "Switters"
INDEX 00 04:25:55
FILE "07 - Handbook of the Modern Jazz Player.wav" WAVE
INDEX 01 00:00:00
TRACK 08 AUDIO
TITLE "Sono contro le Multinazionali"
PERFORMER "Switters"
INDEX 00 03:19:65
FILE "08 - Sono contro le Multinazionali.wav" WAVE
INDEX 01 00:00:00
TRACK 09 AUDIO
TITLE "Poor Look & Celebrity"
PERFORMER "Switters"
INDEX 00 04:32:11
FILE "09 - Poor Look & Celebrity.wav" WAVE
INDEX 01 00:00:00
TRACK 10 AUDIO
TITLE "Paris Hilton's Fundaments of Economy"
PERFORMER "Switters"
INDEX 00 02:55:71
FILE "10 - Paris Hilton's Fundaments of Economy.wav" WAVE
INDEX 01 00:00:00
TRACK 11 AUDIO
TITLE "Italian Sadness Inc."
PERFORMER "Switters"
INDEX 00 04:01:02
FILE "11 - Italian Sadness Inc..wav" WAVE
INDEX 01 00:00:00
TRACK 12 AUDIO
TITLE "Festival Director Looking for a New Job"
PERFORMER "Switters"
INDEX 00 03:04:48
FILE "12 - Festival Director Looking for a New Job.wav" WAVE
INDEX 01 00:00:00
TRACK 13 AUDIO
TITLE "Afro Groove Masturbation"
PERFORMER "Switters"
INDEX 00 04:18:14
FILE "13 - Afro Groove Masturbation.wav" WAVE
INDEX 01 00:00:00
TRACK 14 AUDIO
TITLE "Rock"
PERFORMER "Switters"
INDEX 00 03:37:09
FILE "14 - Rock.wav" WAVE
INDEX 01 00:00:00
FILE "15 - Marketing dell'autenticità.wav" WAVE
TRACK 15 AUDIO
TITLE "Marketing dell'autenticità"
PERFORMER "Switters"
INDEX 01 00:00:00
TRACK 16 AUDIO
TITLE "Falsa alternativa"
PERFORMER "Switters"
INDEX 00 02:28:56
FILE "16 - Falsa alternativa.wav" WAVE
INDEX 01 00:00:00
TRACK 17 AUDIO
TITLE "Gerontocrazia e feticismo"
PERFORMER "Switters"
INDEX 00 08:15:66
FILE "17 - Gerontocrazia e feticismo.wav" WAVE
INDEX 01 00:00:00
TRACK 18 AUDIO
TITLE "Allevi giovani allievi 2"
PERFORMER "Switters"
INDEX 00 03:38:40
FILE "18 - Allevi giovani allievi 2.wav" WAVE
INDEX 01 00:00:00
По всем вопросам пишите личное сообщение пользователю M0p94ok.
00:52
194
Нет комментариев. Ваш будет первым!