Поиск

(Avant-Garde Jazz / Free Improvisation) [CD] Inner Ear (Mikolaj Trzaska, Steve Swell, Per-Ake Holmlander, Tim Daisy) - Breathing Steam - 2011 [Kilogram Records 021], FLAC (tracks+.cue), lossless

(Avant-Garde Jazz / Free Improvisation) [CD] Inner Ear (Mikolaj Trzaska, Steve Swell, Per-Ake Holmlander, Tim Daisy) - Breathing Steam - 2011 [Kilogram Records 021], FLAC (tracks+.cue), lossless
Треклист:
Inner Ear - Breathing Steam
Жанр: Avant-Garde Jazz / Free Improvisation
Носитель: CD
Страна-производитель диска: Poland
Год издания: 2011
Издатель (лейбл): Kilogram Records
Номер по каталогу: 021
Аудиокодек: FLAC (*.flac)
Тип рипа: tracks+.cue
Битрейт аудио: lossless
Продолжительность: 00:53:38
Источник (релизер): nnm, Джаз Клуб, 5 апреля, 2014 / спасибо mishka1981
Наличие сканов в содержимом раздачи: да
Треклист:
1. Lonely Consumer (04:16)
2. Once Upon A Time In A Swamp (03:32)
3. Monster confessions (07:08)
4. Water Lilies in MoMA (03:25)
5. Watch My Tongue (03:17)
6. How Long Is The Train? (09:56)
7. Straw, Ash, Clay, Lead (06:41)
8. Ta-Pies (04:51)
9. For Our Mothers (03:56)
10. Tibetan Gypsy (05:22)
11. Antipodist (01:08)
Доп. информация:
Musicians:
Mikołaj Trzaska - alto saxophone, bass clarinet, taragot
Steve Swell - trombone
Per-Ake Holmlander - tuba
Tim Daisy - drums
Recorded at Studio Radia Gdansk, Poland on 6 December 2010
Inner Ear - Breathing Steam kilogram.pl
Mikołaj Trzaska Official Site
Mikołaj Trzaska myspace.com
 
Лог создания рипа
Exact Audio Copy V1.0 beta 1 from 15. November 2010
EAC extraction logfile from 5. April 2014, 12:08
Mikolaj Trzaska - alto saxophone, bass clarinet, taragot; Steve Swell - trombone; Per-Еke Holmlander- tuba; Tim Daisy - drums / Inner Ear, Breathing Steam
Used drive : Optiarc DVD RW AD-7710H Adapter: 1 ID: 0
Read mode : Secure
Utilize accurate stream : Yes
Defeat audio cache : Yes
Make use of C2 pointers : No
Read offset correction : 48
Overread into Lead-In and Lead-Out : No
Fill up missing offset samples with silence : Yes
Delete leading and trailing silent blocks : No
Null samples used in CRC calculations : Yes
Used interface : Native Win32 interface for Win NT & 2000
Gap handling : Appended to previous track
Used output format : User Defined Encoder
Selected bitrate : 896 kBit/s
Quality : High
Add ID3 tag : No
Command line compressor : C:\Program Files\Exact Audio Copy\FLAC\FLAC.EXE
Additional command line options : -8 -V -T "ARTIST=%a" -T "TITLE=%t" -T "ALBUM=%g" -T "DATE=%y" -T "TRACKNUMBER=%n" -T "GENRE=%m" -T "COMMENT=%e" %j--picture="%i"%j %s -o %d
TOC of the extracted CD
Track | Start | Length | Start sector | End sector
---------------------------------------------------------
1 | 0:00.00 | 4:16.48 | 0 | 19247
2 | 4:16.48 | 3:32.10 | 19248 | 35157
3 | 7:48.58 | 7:08.21 | 35158 | 67278
4 | 14:57.04 | 3:25.05 | 67279 | 82658
5 | 18:22.09 | 3:17.66 | 82659 | 97499
6 | 21:40.00 | 9:56.06 | 97500 | 142205
7 | 31:36.06 | 6:41.47 | 142206 | 172327
8 | 38:17.53 | 4:51.22 | 172328 | 194174
9 | 43:09.00 | 3:56.66 | 194175 | 211940
10 | 47:05.66 | 5:22.46 | 211941 | 236136
11 | 52:28.37 | 1:10.05 | 236137 | 241391
Track 1
Filename C:\MY RIPS\01 - Ear Quartet , Lonely Consumer.wav
Pre-gap length 0:00:02.00
Peak level 100.0 %
Extraction speed 2.7 X
Track quality 100.0 %
Test CRC 88610473
Copy CRC 88610473
Track not present in AccurateRip database
Copy OK
Track 2
Filename C:\MY RIPS\02 - Ear Quartet , Once Upon A Time In A Swamp.wav
Peak level 97.7 %
Extraction speed 2.9 X
Track quality 100.0 %
Test CRC F0EE3D92
Copy CRC F0EE3D92
Track not present in AccurateRip database
Copy OK
Track 3
Filename C:\MY RIPS\03 - Ear Quartet , Monster confessions.wav
Peak level 99.2 %
Extraction speed 3.6 X
Track quality 100.0 %
Test CRC C6F9744A
Copy CRC C6F9744A
Track not present in AccurateRip database
Copy OK
Track 4
Filename C:\MY RIPS\04 - Ear Quartet , Water Lilies in MoMA.wav
Peak level 100.0 %
Extraction speed 3.6 X
Track quality 100.0 %
Test CRC B8EE2CC2
Copy CRC B8EE2CC2
Track not present in AccurateRip database
Copy OK
Track 5
Filename C:\MY RIPS\05 - Ear Quartet , Watch My Tongue.wav
Peak level 100.0 %
Extraction speed 3.1 X
Track quality 99.9 %
Test CRC EF8AE07F
Copy CRC EF8AE07F
Track not present in AccurateRip database
Copy OK
Track 6
Filename C:\MY RIPS\06 - Ear Quartet , How Long Is The Train.wav
Peak level 97.3 %
Extraction speed 4.6 X
Track quality 100.0 %
Test CRC 0FEC4045
Copy CRC 0FEC4045
Track not present in AccurateRip database
Copy OK
Track 7
Filename C:\MY RIPS\07 - Ear Quartet , Straw, Ash, Clay, Lead.wav
Peak level 100.0 %
Extraction speed 4.9 X
Track quality 100.0 %
Test CRC E9D2A543
Copy CRC E9D2A543
Track not present in AccurateRip database
Copy OK
Track 8
Filename C:\MY RIPS\08 - Ear Quartet , Ta-Pies.wav
Peak level 100.0 %
Extraction speed 5.0 X
Track quality 100.0 %
Test CRC 4D3384FD
Copy CRC 4D3384FD
Track not present in AccurateRip database
Copy OK
Track 9
Filename C:\MY RIPS\09 - Ear Quartet , For Our Mothers.wav
Peak level 97.1 %
Extraction speed 5.1 X
Track quality 100.0 %
Test CRC F4C28496
Copy CRC F4C28496
Track not present in AccurateRip database
Copy OK
Track 10
Filename C:\MY RIPS\10 - Ear Quartet , Tibetan Gypsy.wav
Peak level 99.1 %
Extraction speed 5.4 X
Track quality 100.0 %
Test CRC AE322BE1
Copy CRC AE322BE1
Track not present in AccurateRip database
Copy OK
Track 11
Filename C:\MY RIPS\11 - Ear Quartet , Antipodist.wav
Peak level 100.0 %
Extraction speed 2.6 X
Track quality 99.8 %
Test CRC B0348EDE
Copy CRC B0348EDE
Track not present in AccurateRip database
Copy OK
None of the tracks are present in the AccurateRip database
No errors occurred
End of status report
==== Log checksum 725A2AA6040814D23F6641C4A3967D9756DE7564E7C91AA7570818C9ACB0C509 ====
 
Содержание индексной карты (.CUE)
REM DISCID 9F0C920B
REM COMMENT "ExactAudioCopy v1.0b1"
PERFORMER "Mikolaj Trzaska - alto saxophone, bass clarinet, taragot; Steve Swell - tromb..."
TITLE "Inner Ear, Breathing Steam"
FILE "01 - Ear Quartet , Lonely Consumer.wav" WAVE
TRACK 01 AUDIO
TITLE "Ear Quartet / Lonely Consumer "
PERFORMER "Mikolaj Trzaska - alto saxophone, bass clarinet, taragot; Steve Swell - tromb..."
INDEX 01 00:00:00
FILE "02 - Ear Quartet , Once Upon A Time In A Swamp.wav" WAVE
TRACK 02 AUDIO
TITLE "Ear Quartet / Once Upon A Time In A Swamp"
PERFORMER "Mikolaj Trzaska - alto saxophone, bass clarinet, taragot; Steve Swell - tromb..."
INDEX 01 00:00:00
FILE "03 - Ear Quartet , Monster confessions.wav" WAVE
TRACK 03 AUDIO
TITLE "Ear Quartet / Monster confessions"
PERFORMER "Mikolaj Trzaska - alto saxophone, bass clarinet, taragot; Steve Swell - tromb..."
INDEX 01 00:00:00
FILE "04 - Ear Quartet , Water Lilies in MoMA.wav" WAVE
TRACK 04 AUDIO
TITLE "Ear Quartet / Water Lilies in MoMA"
PERFORMER "Mikolaj Trzaska - alto saxophone, bass clarinet, taragot; Steve Swell - tromb..."
INDEX 01 00:00:00
FILE "05 - Ear Quartet , Watch My Tongue.wav" WAVE
TRACK 05 AUDIO
TITLE "Ear Quartet / Watch My Tongue"
PERFORMER "Mikolaj Trzaska - alto saxophone, bass clarinet, taragot; Steve Swell - tromb..."
INDEX 01 00:00:00
FILE "06 - Ear Quartet , How Long Is The Train.wav" WAVE
TRACK 06 AUDIO
TITLE "Ear Quartet / How Long Is The Train?"
PERFORMER "Mikolaj Trzaska - alto saxophone, bass clarinet, taragot; Steve Swell - tromb..."
INDEX 01 00:00:00
FILE "07 - Ear Quartet , Straw, Ash, Clay, Lead.wav" WAVE
TRACK 07 AUDIO
TITLE "Ear Quartet / Straw, Ash, Clay, Lead"
PERFORMER "Mikolaj Trzaska - alto saxophone, bass clarinet, taragot; Steve Swell - tromb..."
INDEX 01 00:00:00
FILE "08 - Ear Quartet , Ta-Pies.wav" WAVE
TRACK 08 AUDIO
TITLE "Ear Quartet / Ta-Pies"
PERFORMER "Mikolaj Trzaska - alto saxophone, bass clarinet, taragot; Steve Swell - tromb..."
INDEX 01 00:00:00
FILE "09 - Ear Quartet , For Our Mothers.wav" WAVE
TRACK 09 AUDIO
TITLE "Ear Quartet / For Our Mothers"
PERFORMER "Mikolaj Trzaska - alto saxophone, bass clarinet, taragot; Steve Swell - tromb..."
INDEX 01 00:00:00
FILE "10 - Ear Quartet , Tibetan Gypsy.wav" WAVE
TRACK 10 AUDIO
TITLE "Ear Quartet / Tibetan Gypsy"
PERFORMER "Mikolaj Trzaska - alto saxophone, bass clarinet, taragot; Steve Swell - tromb..."
INDEX 01 00:00:00
FILE "11 - Ear Quartet , Antipodist.wav" WAVE
TRACK 11 AUDIO
TITLE "Ear Quartet / Antipodist"
PERFORMER "Mikolaj Trzaska - alto saxophone, bass clarinet, taragot; Steve Swell - tromb..."
INDEX 01 00:00:00
 
auCDtect Task Manager
-----------------------
DON'T MODIFY THIS FILE
-----------------------
PERFORMER: auCDtect Task Manager, ver. 1.5.1RC6 build 1.5.1.7
Copyright (c) 2008-2010 y-soft. All rights reserved
http://y-soft.org
ANALYZER: auCDtect: CD records authenticity detector, version 0.8.2
Copyright (c) 2004 Oleg Berngardt. All rights reserved.
Copyright (c) 2004 Alexander Djourik. All rights reserved.
FILE: 11 - Ear Quartet , Antipodist.flac
Size: 7533019 Hash: E837628F13B861E796D1ABDB851DF8DE Accuracy: -m0
Conclusion: CDDA 100%
Signature: 053E446BD0D55E990D1457C165AE133244499406
FILE: 10 - Ear Quartet , Tibetan Gypsy.flac
Size: 33177507 Hash: 95346EB9CF6D29B4B946EA68310A6124 Accuracy: -m0
Conclusion: CDDA 100%
Signature: 00CAEF77BAE90FCC7A799B4428F7111DE3120389
FILE: 09 - Ear Quartet , For Our Mothers.flac
Size: 20288518 Hash: A060F4040B54FEF123CEC1006F655DD8 Accuracy: -m0
Conclusion: CDDA 99%
Signature: A5997EB239F3BC39A5BCAA3FEC0595A6C40E0C39
FILE: 08 - Ear Quartet , Ta-Pies.flac
Size: 31562834 Hash: 81A18040D59BB8FECF82B53B83BFF91D Accuracy: -m0
Conclusion: CDDA 100%
Signature: 8AB826797686475F229E2968E600249E521A618B
FILE: 07 - Ear Quartet , Straw, Ash, Clay, Lead.flac
Size: 42708566 Hash: B03DB5FBC8C0A118A843C5CB4526E4D1 Accuracy: -m0
Conclusion: CDDA 99%
Signature: 2DF23D62EE0D9F0D7440F4050F2A126803506506
FILE: 06 - Ear Quartet , How Long Is The Train.flac
Size: 44264294 Hash: 7B51D2C14B8D5579E496A21CF995D0E6 Accuracy: -m0
Conclusion: CDDA 100%
Signature: 93063EB404739F15FF08D3252B749F97F2C51F82
FILE: 05 - Ear Quartet , Watch My Tongue.flac
Size: 24106853 Hash: ACE7C9C45E3AB104BE7AA2912CC00F05 Accuracy: -m0
Conclusion: CDDA 100%
Signature: 69DBB5722697F00AA65F3B90852B54FE7B6DF7EF
FILE: 04 - Ear Quartet , Water Lilies in MoMA.flac
Size: 17916395 Hash: D9EE51F7CA369F969B95E9C528BC4298 Accuracy: -m0
Conclusion: CDDA 100%
Signature: E4F2710081BDE475CFD2C0F207963C11FF913B9E
FILE: 03 - Ear Quartet , Monster confessions.flac
Size: 31777081 Hash: 5AEA45B02BE0E8EE12F950888B8517A6 Accuracy: -m0
Conclusion: CDDA 100%
Signature: 4615532DEF6E389549AE21E8E6588924A61E186C
FILE: 02 - Ear Quartet , Once Upon A Time In A Swamp.flac
Size: 14770615 Hash: 00532F5C2BEF702BCDBC4939ABE34CE6 Accuracy: -m0
Conclusion: CDDA 100%
Signature: C194274C7C854B8EA936E0C2A5A687899BFD0B63
FILE: 01 - Ear Quartet , Lonely Consumer.flac
Size: 30505584 Hash: C52A6E7F1B1E594EBFD8012A255A6B80 Accuracy: -m0
Conclusion: CDDA 100%
Signature: 7ECAE86A2234DBD18E4D2265A59E0FFF3A159663
... релизы с участием MIKOŁAJ TRZASKA на трекере ...
По всем вопросам пишите личное сообщение пользователю M0p94ok.
00:54
152
Нет комментариев. Ваш будет первым!