Вы используете незарегистрированную версию компонента "Вкладки"!

Поиск

(Free Jazz) Feri Nemeth With Mark Whitecage Trio - "Common Ground" - 2002, FLAC (tracks+.cue), lossless

Треклист:
Feri Nemeth With Mark Whitecage Trio - "Common Ground"
Жанр: Free Jazz
Год выпуска диска: 2002
Производитель диска: Hungary
Label: Harmónia Produkció HCD 171
Аудио кодек: FLAC
Тип рипа: tracks+.cue + Artwork
Битрейт аудио: lossless
Продолжительность: 48:42
Происхождение рипа: собственный рип с оригинального диска.
Треклист:
01. Five O'Clock Follies
02. Common Ground
03. Good Bless the Child
04. Good Bait
Доп. информация:
Mark Whitecage - szaxofon
Németh Ferenc - szaxofon on 2, 3
Dominic Duval - nagybőgő
Jay Rosen - dob

Recorded Mai 4, 2001 at Restaurant Jazz-Galerie in Nickelsdorf, Austria by Hans Falb.
Recording engineer: Szabolcs Kapusi and Szabolcs Süveges
 
EAC log
Exact Audio Copy V0.99 prebeta 5 from 4. May 2009
EAC extraction logfile from 15. August 2010, 22:22
Mark Whitecage Trio + Feri Nemeth / Comman Ground
Used drive : HL-DT-STDVD-ROM GDR8162B Adapter: 1 ID: 1
Read mode : Secure
Utilize accurate stream : Yes
Defeat audio cache : Yes
Make use of C2 pointers : No
Read offset correction : 102
Overread into Lead-In and Lead-Out : Yes
Fill up missing offset samples with silence : Yes
Delete leading and trailing silent blocks : No
Null samples used in CRC calculations : Yes
Used interface : Installed external ASPI interface
Gap handling : Appended to previous track
Used output format : User Defined Encoder
Selected bitrate : 768 kBit/s
Quality : High
Add ID3 tag : No
Command line compressor : C:\Program Files\FLAC\flac.exe
Additional command line options : -V -8 -T "ARTIST=%a" -T "TITLE=%t" -T "ALBUM=%g" -T "TRACKNUMBER=%n" -T "GENRE=%m" %s
TOC of the extracted CD
Track | Start | Length | Start sector | End sector
---------------------------------------------------------
1 | 0:00.00 | 7:50.36 | 0 | 35285
2 | 7:50.36 | 16:28.58 | 35286 | 109443
3 | 24:19.19 | 16:25.40 | 109444 | 183358
4 | 40:44.59 | 7:59.71 | 183359 | 219354
Track 1
Filename C:\ru up\Whitecage\01 - Five O'Clock Follies.wav
Pre-gap length 0:00:02.00
Peak level 91.1 %
Track quality 100.0 %
Test CRC 758A50F4
Copy CRC 758A50F4
Accurately ripped (confidence 1) [9F9740C8]
Copy OK
Track 2
Filename C:\ru up\Whitecage\02 - Common Ground.wav
Peak level 91.1 %
Track quality 99.9 %
Test CRC 432A9BCA
Copy CRC 40B9E285
Cannot be verified as accurate (confidence 1) [F8104349], AccurateRip returned [A26E3D0D]
Copy OK
Track 3
Filename C:\ru up\Whitecage\03 - God Bless the Child.wav
Peak level 91.1 %
Track quality 99.9 %
Test CRC C190BE03
Copy CRC C190BE03
Accurately ripped (confidence 1) [90520856]
Copy OK
Track 4
Filename C:\ru up\Whitecage\04 - Good Bait.wav
Peak level 91.1 %
Track quality 100.0 %
Test CRC 1AC69309
Copy CRC 1AC69309
Accurately ripped (confidence 1) [472EB2CA]
Copy OK
3 track(s) accurately ripped
1 track(s) could not be verified as accurate
Some tracks could not be verified as accurate
No errors occurred
End of status report
 
cue
REM GENRE "Free Jazz"
REM DATE 200
REM DISCID 2B0B6C04
REM COMMENT "ExactAudioCopy v0.99pb5"
PERFORMER "Mark Whitecage Trio + Feri Nemeth"
TITLE "Comman Ground"
FILE "01 - Five O'Clock Follies.wav" WAVE
TRACK 01 AUDIO
TITLE "Five O'Clock Follies"
PERFORMER "Mark Whitecage Trio + Feri Nemeth"
INDEX 01 00:00:00
FILE "02 - Common Ground.wav" WAVE
TRACK 02 AUDIO
TITLE "Common Ground"
PERFORMER "Mark Whitecage Trio + Feri Nemeth"
INDEX 01 00:00:00
FILE "03 - God Bless the Child.wav" WAVE
TRACK 03 AUDIO
TITLE "God Bless the Child"
PERFORMER "Mark Whitecage Trio + Feri Nemeth"
INDEX 01 00:00:00
FILE "04 - Good Bait.wav" WAVE
TRACK 04 AUDIO
TITLE "Good Bait"
PERFORMER "Mark Whitecage Trio + Feri Nemeth"
INDEX 01 00:00:00
По всем вопросам пишите личное сообщение пользователю M0p94ok.
02:20
160
Нет комментариев. Ваш будет первым!