Поиск

(Avant-Garde / Modern Creative) Big Satan - Souls Saved Hear - 2004, FLAC (tracks+.cue), lossless

Треклист:
Big Satan - Souls Saved Hear

Жанр: Avant-Garde / Modern Creative
Год выпуска диска: 2004
Производитель диска: Thirsty Ear 57151; USA
Аудио кодек: FLAC
Тип рипа: tracks+.cue
Битрейт аудио: lossless
Продолжительность: 47:49
Tom Rainey: drums
Marc Ducret: guitars
Time Berne: saxophone
1. Ce Sont les Noms des Mots
2. Hostility Suite
3. Geez
4. Rampe
5. Emportez-Moi
6. Deadpan
7. Mr. Subliminal
8. Property Shark
9. Plaintain Surgery
Recorded June 9 + 10 2003 at the Make Believe Ballroom.
 
AAJ Review
Exorcising the demons with the fire and brimstone of a revivalist meeting, Souls Saved Hear marks the ferocious return of saxophonist Tim Berne's Big Satan. At just under 48 minutes — the longest piece just over ten — it is somewhat diminutive within Berne's catalog. But the taut arrangements distill the power of the performances. Focused on intensity, Berne, along with guitarist Marc Ducret and drummer Tom Rainey, unleashes a musical torrent that threatens to overwhelm.
Ducret's supple acoustic guitar opens "Ce Sont Les Noms Des Mots," almost antithetically to what follows. The piece builds momentum, with Ducret and Berne trading statements. For emphasis, producer David Torn allows the horn to echo, adding additional sonic color and a touch of drama. Guitar noises and skittering drums introduce "Hostility Suite," a frenetic tune that has Berne hanging on notes and bleating short phrases, before the tune melts to a spacious conclusion. "Geez" is another spry tune, with Berne and Ducret's parts becoming tightly wound together as Rainey whips them along. He does it again on "Rampe," locking into a chunky groove with Ducret's snarling bottom-end sound, allowing Berne's horn to slink through the spaces. The sax-guitar duet of "Emportez-moi" offers a brief respite, before Rainey's solo statement introduces "Deadpan," a stuttering Berne piece that hints at themes before fully stating them. The tune boasts intense exchanges between the drummer and his partners individually, and erupts when all three converge. After a kinetic intro, "Mr. Subliminal" features Berne's insistent horn, before Ducret joins him for snake-charming effect. A Torn remix and recombination concludes the CD, and suggests how deep the musical mine runs.
Despite the overlap of players with other Berne projects, Big Satan has a collective identity of its own, with each member contributing compositions, and has built a tight interplay over time. ~ Sean Patrick Fitzell, AAJ
 
EAC Report
Exact Audio Copy V0.99 prebeta 4 from 23. January 2008
EAC extraction logfile from 17. July 2010, 18:48
Big Satan / Souls Saved Hear
Used drive : TSSTcorpCD/DVDW SH-S182M Adapter: 2 ID: 0
Read mode : Secure
Utilize accurate stream : Yes
Defeat audio cache : Yes
Make use of C2 pointers : No
Read offset correction : 6
Overread into Lead-In and Lead-Out : No
Fill up missing offset samples with silence : Yes
Delete leading and trailing silent blocks : No
Null samples used in CRC calculations : Yes
Used interface : Installed external ASPI interface
Gap handling : Appended to previous track
Used output format : User Defined Encoder
Selected bitrate : 1024 kBit/s
Quality : High
Add ID3 tag : No
Command line compressor : C:\Program Files\Exact Audio Copy\Flac\flac.exe
Additional command line options : -6 -V -T "ARTIST=%a" -T "TITLE=%t" -T "ALBUM=%g" -T "DATE=%y" -T "TRACKNUMBER=%n" -T "GENRE=%m" -T "COMMENT=EAC FLAC -6" %s
TOC of the extracted CD
Track | Start | Length | Start sector | End sector
---------------------------------------------------------
1 | 0:00.00 | 10:16.15 | 0 | 46214
2 | 10:16.15 | 6:01.68 | 46215 | 73357
3 | 16:18.08 | 4:22.03 | 73358 | 93010
4 | 20:40.11 | 5:39.44 | 93011 | 118479
5 | 26:19.55 | 1:58.70 | 118480 | 127399
6 | 28:18.50 | 8:20.00 | 127400 | 164899
7 | 36:38.50 | 7:05.35 | 164900 | 196809
8 | 43:44.10 | 0:10.36 | 196810 | 197595
9 | 43:54.46 | 3:58.59 | 197596 | 215504
10 | 50:25.30 | 28:49.22 | 226905 | 356601
Track 1
Filename G:\01 - Ce Sont les Noms des Mots.wav
Pre-gap length 0:00:02.00
Peak level 90.1 %
Track quality 100.0 %
Test CRC 79B3B681
Copy CRC 79B3B681
Accurately ripped (confidence 2) [E8C6E507]
Copy OK
Track 2
Filename G:\02 - Hostility Suite.wav
Pre-gap length 0:00:02.04
Peak level 77.6 %
Track quality 100.0 %
Test CRC CAF41BD2
Copy CRC CAF41BD2
Accurately ripped (confidence 2) [96E21227]
Copy OK
Track 3
Filename G:\03 - Geez.wav
Pre-gap length 0:00:02.04
Peak level 91.5 %
Track quality 100.0 %
Test CRC 482C5736
Copy CRC 482C5736
Accurately ripped (confidence 2) [A587AEC5]
Copy OK
Track 4
Filename G:\04 - Rampe.wav
Peak level 91.2 %
Track quality 100.0 %
Test CRC 1BD38AC9
Copy CRC 1BD38AC9
Accurately ripped (confidence 2) [A62D9777]
Copy OK
Track 5
Filename G:\05 - Emportez-Moi.wav
Pre-gap length 0:00:04.06
Peak level 56.8 %
Track quality 100.0 %
Test CRC 21F930C4
Copy CRC 21F930C4
Accurately ripped (confidence 2) [E40438FA]
Copy OK
Track 6
Filename G:\06 - Deadpan.wav
Pre-gap length 0:00:03.05
Peak level 91.2 %
Track quality 100.0 %
Test CRC E19FB08D
Copy CRC E19FB08D
Accurately ripped (confidence 2) [35DBA477]
Copy OK
Track 7
Filename G:\07 - Mr. Subliminal.wav
Pre-gap length 0:00:01.02
Peak level 91.2 %
Track quality 100.0 %
Test CRC 58C14ECF
Copy CRC 58C14ECF
Accurately ripped (confidence 2) [3C8561D1]
Copy OK
Track 8
Filename G:\08 - Property Shark.wav
Pre-gap length 0:00:01.02
Peak level 27.8 %
Track quality 100.0 %
Test CRC 905101AF
Copy CRC 905101AF
Accurately ripped (confidence 2) [7B7F45B4]
Copy OK
Track 9
Filename G:\09 - Plaintain Surgery.wav
Peak level 87.0 %
Track quality 100.0 %
Test CRC 97AC764E
Copy CRC 97AC764E
Accurately ripped (confidence 2) [18E5EACC]
Copy OK
All tracks accurately ripped
No errors occurred
End of status report
 
cue
REM GENRE "Thirsty Ear 57151"
REM DATE 2004
REM DISCID 7312920A
REM COMMENT "ExactAudioCopy v0.99pb4"
PERFORMER "Big Satan"
TITLE "Souls Saved Hear"
FILE "01 - Ce Sont les Noms des Mots.wav" WAVE
TRACK 01 AUDIO
TITLE "Ce Sont les Noms des Mots"
PERFORMER "Big Satan"
INDEX 01 00:00:00
TRACK 02 AUDIO
TITLE "Hostility Suite"
PERFORMER "Big Satan"
INDEX 00 10:14:12
FILE "02 - Hostility Suite.wav" WAVE
INDEX 01 00:00:00
TRACK 03 AUDIO
TITLE "Geez"
PERFORMER "Big Satan"
INDEX 00 05:59:65
FILE "03 - Geez.wav" WAVE
INDEX 01 00:00:00
FILE "04 - Rampe.wav" WAVE
TRACK 04 AUDIO
TITLE "Rampe"
PERFORMER "Big Satan"
INDEX 01 00:00:00
TRACK 05 AUDIO
TITLE "Emportez-Moi"
PERFORMER "Big Satan"
INDEX 00 05:35:39
FILE "05 - Emportez-Moi.wav" WAVE
INDEX 01 00:00:00
TRACK 06 AUDIO
TITLE "Deadpan"
PERFORMER "Big Satan"
INDEX 00 01:55:66
FILE "06 - Deadpan.wav" WAVE
INDEX 01 00:00:00
TRACK 07 AUDIO
TITLE "Mr. Subliminal"
PERFORMER "Big Satan"
INDEX 00 08:18:73
FILE "07 - Mr. Subliminal.wav" WAVE
INDEX 01 00:00:00
TRACK 08 AUDIO
TITLE "Property Shark"
PERFORMER "Big Satan"
INDEX 00 07:04:33
FILE "08 - Property Shark.wav" WAVE
INDEX 01 00:00:00
FILE "09 - Plaintain Surgery.wav" WAVE
TRACK 09 AUDIO
TITLE "Plaintain Surgery"
PERFORMER "Big Satan"
INDEX 01 00:00:00

рип собственный
Big Satan - I Think They Liked It, Honey (1997)
По всем вопросам пишите личное сообщение пользователю M0p94ok.
02:21
162
Нет комментариев. Ваш будет первым!