Вы используете незарегистрированную версию компонента "Вкладки"!

Поиск

(Free Jazz, Avant-Garde, Free Improvisation) Bailey-Frith-Sharrock-Zorn-Laswell-Noyes - Improvised Music New York 1981 - 1991, FLAC (tracks+.cue), lossless

(Free Jazz, Avant-Garde, Free Improvisation) Bailey-Frith-Sharrock-Zorn-Laswell-Noyes - Improvised Music New York 1981 - 1991, FLAC (tracks+.cue), lossless
Треклист:
Bailey-Frith-Sharrock-Zorn-Laswell-Noyes - Improvised Music New York 1981
Жанр: Free Jazz, Avant-Garde, Free Improvisation
Год выпуска диска: 1991
Производитель диска: USA
Label: MUWORKS Records MU W 1007
Аудио кодек: FLAC
Тип рипа: tracks+.cue + Artwork
Битрейт аудио: lossless
Продолжительность: 33:04
Происхождение рипа: собственный рип с оригинального диска.
Треклист:
01. no title (Laswell,SS,Zorn,DB,Frith,CN) 1.21
02. no title (BL,SS,Zorn,Bailey,FF,Noyes) 5.03
03. no title (BL,Sharrock,JZ,DB,Frith,CN) 4.32
04. no title (Laswell,SS,Zorn,DB,Frith,CN) 5.48
05. no title (BL,SS,Zorn,Bailey,FF,Noyes) 6.40
06. no title (BL,Sharrock,JZ,DB,Frith,CN) 5.44
07. no title (Laswell,SS,Zorn,DB,Frith,CN) 3.48
Доп. информация:
Derek Bailey - guitar
Fred Frith - guitar
Sonny Sharrock - guitar
John Zorn - horns
Bill Laswell - bass
Charles K. Noyes - percussion
Recorded live at the Kitchen, September 18, 1981
Recorded by Martin Bisi
Note: This album was intended to be released as a Material album, but couldn't due to contractual obligations.
 
EAC log
Exact Audio Copy V0.99 prebeta 5 from 4. May 2009
EAC extraction logfile from 15. August 2010, 1:51
Derek Bailey, Fred Frith, Sonny Sharrock, John Zorn, Bill Laswell, Charles K. Notes / Improvised Music New York 1981
Used drive : HL-DT-STDVD-ROM GDR8162B Adapter: 1 ID: 1
Read mode : Secure
Utilize accurate stream : Yes
Defeat audio cache : Yes
Make use of C2 pointers : No
Read offset correction : 102
Overread into Lead-In and Lead-Out : Yes
Fill up missing offset samples with silence : Yes
Delete leading and trailing silent blocks : No
Null samples used in CRC calculations : Yes
Used interface : Installed external ASPI interface
Gap handling : Appended to previous track
Used output format : User Defined Encoder
Selected bitrate : 768 kBit/s
Quality : High
Add ID3 tag : No
Command line compressor : C:\Program Files\FLAC\flac.exe
Additional command line options : -V -8 -T "ARTIST=%a" -T "TITLE=%t" -T "ALBUM=%g" -T "TRACKNUMBER=%n" -T "GENRE=%m" %s
TOC of the extracted CD
Track | Start | Length | Start sector | End sector
---------------------------------------------------------
1 | 0:00.00 | 1:21.17 | 0 | 6091
2 | 1:21.17 | 5:04.08 | 6092 | 28899
3 | 6:25.25 | 4:33.42 | 28900 | 49416
4 | 10:58.67 | 5:50.08 | 49417 | 75674
5 | 16:49.00 | 6:42.17 | 75675 | 105841
6 | 23:31.17 | 5:46.28 | 105842 | 131819
7 | 29:17.45 | 3:48.45 | 131820 | 148964
Track 1
Filename C:\ru up\Improvised NY\01 - one.wav
Pre-gap length 0:00:02.00
Peak level 98.0 %
Track quality 100.0 %
Test CRC 885AC7DB
Copy CRC 885AC7DB
Accurately ripped (confidence 2) [583043A0]
Copy OK
Track 2
Filename C:\ru up\Improvised NY\02 - two.wav
Pre-gap length 0:00:00.22
Peak level 72.1 %
Track quality 100.0 %
Test CRC 63777C30
Copy CRC 63777C30
Accurately ripped (confidence 2) [66C113EE]
Copy OK
Track 3
Filename C:\ru up\Improvised NY\03 - three.wav
Pre-gap length 0:00:00.63
Peak level 73.2 %
Track quality 100.0 %
Test CRC 508798FF
Copy CRC 508798FF
Accurately ripped (confidence 2) [4B91F9E9]
Copy OK
Track 4
Filename C:\ru up\Improvised NY\04 - four.wav
Pre-gap length 0:00:01.00
Peak level 61.4 %
Track quality 100.0 %
Test CRC 03E7E3B3
Copy CRC 03E7E3B3
Accurately ripped (confidence 2) [63F11396]
Copy OK
Track 5
Filename C:\ru up\Improvised NY\05 - five.wav
Pre-gap length 0:00:01.55
Peak level 66.0 %
Track quality 100.0 %
Test CRC 6C68C2A6
Copy CRC 6C68C2A6
Accurately ripped (confidence 2) [078B8E43]
Copy OK
Track 6
Filename C:\ru up\Improvised NY\06 - six.wav
Pre-gap length 0:00:01.27
Peak level 74.5 %
Track quality 100.0 %
Test CRC 7A9105A4
Copy CRC 7A9105A4
Accurately ripped (confidence 2) [3D0BC7F2]
Copy OK
Track 7
Filename C:\ru up\Improvised NY\07 - seven.wav
Pre-gap length 0:00:02.03
Peak level 100.0 %
Track quality 100.0 %
Test CRC A3300C3A
Copy CRC A3300C3A
Accurately ripped (confidence 2) [0ABAA5ED]
Copy OK
All tracks accurately ripped
No errors occurred
End of status report
 
cue
REM GENRE Avant-Garde
REM DISCID 4D07C207
REM COMMENT "ExactAudioCopy v0.99pb5"
CATALOG 0000000000000
PERFORMER "Derek Bailey, Fred Frith, Sonny Sharrock, John Zorn, Bill Laswell, Charles K...."
TITLE "Improvised Music New York 1981"
FILE "01 - one.wav" WAVE
TRACK 01 AUDIO
TITLE "one"
PERFORMER "Derek Bailey, Fred Frith, Sonny Sharrock, John Zorn, Bill Laswell, Charles K...."
INDEX 01 00:00:00
TRACK 02 AUDIO
TITLE "two"
PERFORMER "Derek Bailey, Fred Frith, Sonny Sharrock, John Zorn, Bill Laswell, Charles K...."
INDEX 00 01:20:70
FILE "02 - two.wav" WAVE
INDEX 01 00:00:00
TRACK 03 AUDIO
TITLE "three"
PERFORMER "Derek Bailey, Fred Frith, Sonny Sharrock, John Zorn, Bill Laswell, Charles K...."
INDEX 00 05:03:20
FILE "03 - three.wav" WAVE
INDEX 01 00:00:00
TRACK 04 AUDIO
TITLE "four"
PERFORMER "Derek Bailey, Fred Frith, Sonny Sharrock, John Zorn, Bill Laswell, Charles K...."
INDEX 00 04:32:42
FILE "04 - four.wav" WAVE
INDEX 01 00:00:00
TRACK 05 AUDIO
TITLE "five"
PERFORMER "Derek Bailey, Fred Frith, Sonny Sharrock, John Zorn, Bill Laswell, Charles K...."
INDEX 00 05:48:28
FILE "05 - five.wav" WAVE
INDEX 01 00:00:00
TRACK 06 AUDIO
TITLE "six"
PERFORMER "Derek Bailey, Fred Frith, Sonny Sharrock, John Zorn, Bill Laswell, Charles K...."
INDEX 00 06:40:65
FILE "06 - six.wav" WAVE
INDEX 01 00:00:00
TRACK 07 AUDIO
TITLE "seven"
PERFORMER "Derek Bailey, Fred Frith, Sonny Sharrock, John Zorn, Bill Laswell, Charles K...."
INDEX 00 05:44:25
FILE "07 - seven.wav" WAVE
INDEX 01 00:00:00
 
REVIEWS :
This is a live recording of a performance by the New York avant-garde group Material. Due to legal complications, the name "Material" was not allowed to be used on this release,
as well as there being no song titles. It's an early performance only for the most open-minded listeners, for the group sticks to aggressive experimental noise which follows no musical conventions at all.
Sometimes the group creates some fascinating moments (especially on track 2), but otherwise this is largely enerving, though occasionally amusing (Noyes' percussion intro on track 7). T
his features interesting abstract cover art by Thi-Linh Le.
По всем вопросам пишите личное сообщение пользователю M0p94ok.
02:19
173
Нет комментариев. Ваш будет первым!