Вы используете незарегистрированную версию компонента "Вкладки"!

Поиск

(Modern Creative, Fusion) Jerry Granelli - The V16 Project - 2003, FLAC (image+.cue), lossless

Треклист:
Jerry Granelli - The V16 Project
Жанр: Modern Creative, Fusion
Год выпуска диска: 2003
Производитель диска: Songlines, USA
Аудио кодек: FLAC
Тип рипа: image+.cue
Битрейт аудио: lossless
Продолжительность: 57:37
Треклист:
1. Temptation
2. O Bossa, Where Art Thou?
3. Lunch With Mr. Wong / Leaving Mr. Wong's
4. Acoustic Trio
5. Acoustic Duo
6. Cassius
7. Hobo Comedies
8. Family Man
Intermission
9. Walk By
10. Mutator
11. Good Wheat
12. Texas Oklahoma Conspiracy
13. Black Confederacy
Performers:
Jerry Granelli - electro-acoustic percussion
Anthony Cox - bass
Christian Kögel - guitars
David Tronzo - guitars
Доп. информация: Рип диска из собственной коллекции. Коврики прилагаются.
Другие раздачи Jerry Granelli:
«Enter, a Dragon» - http://rutracker.org/forum/viewtopic.php?t=1722055
«Crowd Theory» - http://rutracker.org/forum/viewtopic.php?t=2214387
 
Отчёт EAC
Exact Audio Copy V0.99 prebeta 5 from 4. May 2009
Отчёт EAC об извлечении, выполненном 15. августа 2010, 15:55
Jerry Granelli / The V16 Project
Дисковод: PIONEER DVD-RW DVR-112D Adapter: 1 ID: 0
Режим чтения : Достоверность
Использование точного потока : Да
Отключение кэша аудио : Да
Использование указателей C2 : Нет
Коррекция смещения при чтении : 48
Способность читать области Lead-in и Lead-out : Нет
Заполнение пропущенных сэмплов тишиной : Да
Удаление блоков с тишиной в начале и конце : Нет
При вычислениях CRC использовались нулевые сэмплы : Да
Интерфейс : Встроенный Win32-интерфейс для Win NT/2000
Выходной формат : Пользовательский кодировщик
Выбранный битрейт : 128 kBit/s
Качество : Высокий
Добавление ID3-тэга : Нет
Утилита сжатия : C:\Program Files\Exact Audio Copy\Flac\flac.exe
Дополнительные параметры : -8 -V %s
TOC извлечённого CD
Трек | Старт | Длительность | Начальный сектор | Конечный сектор
---------------------------------------------------------------------
1 | 0:00.00 | 11:17.26 | 0 | 50800
2 | 11:17.26 | 7:01.00 | 50801 | 82375
3 | 18:18.26 | 7:24.16 | 82376 | 115691
4 | 25:42.42 | 1:44.69 | 115692 | 123560
5 | 27:27.36 | 3:49.28 | 123561 | 140763
6 | 31:16.64 | 2:51.04 | 140764 | 153592
7 | 34:07.68 | 4:56.58 | 153593 | 175850
8 | 39:04.51 | 3:21.34 | 175851 | 190959
9 | 42:26.10 | 0:23.31 | 190960 | 192715
10 | 42:49.41 | 4:05.54 | 192716 | 211144
11 | 46:55.20 | 2:45.48 | 211145 | 223567
12 | 49:40.68 | 3:34.34 | 223568 | 239651
13 | 53:15.27 | 4:21.72 | 239652 | 259298
Характеристики диапазона извлечения и сообщения об ошибках
Выбранный диапазон
Имя файла G:\torrents\M.Music\Jerry Granelli - The V16 Project\Jerry Granelli - The V16 Project.wav
Пиковый уровень 97.8 %
Качество диапазона 100.0 %
CRC теста D5C3CDE2
CRC копии D5C3CDE2
Копирование... OK
Ошибок не произошло
AccurateRip: сводка
Трек 1 точное извлечение (доверие 1) [7714E4CA]
Трек 2 точное извлечение (доверие 1) [63A8D63D]
Трек 3 точное извлечение (доверие 1) [C574BD58]
Трек 4 точное извлечение (доверие 1) [22A67B75]
Трек 5 точное извлечение (доверие 1) [5212147D]
Трек 6 точное извлечение (доверие 1) [ACA3854E]
Трек 7 точное извлечение (доверие 1) [8259532D]
Трек 8 точное извлечение (доверие 1) [E95456E8]
Трек 9 точное извлечение (доверие 1) [324A42AB]
Трек 10 точное извлечение (доверие 1) [9ECCF784]
Трек 11 точное извлечение (доверие 1) [B7E1B38D]
Трек 12 точное извлечение (доверие 1) [BC84E819]
Трек 13 точное извлечение (доверие 1) [41DEF361]
Все треки извлечены точно
Конец отчёта
Any questions -> support@pro-jazz.com. По всем вопросам пишите -> support@pro-jazz.com
02:19
244
Нет комментариев. Ваш будет первым!