Вы используете незарегистрированную версию компонента "Вкладки"!

Поиск

(Free Jazz, Experimental Big Band) UMO Jazz Orchestra - Plays The Music Of Muhal Richard Abrams - 1989, FLAC (tracks+.cue), lossless

(Free Jazz, Experimental Big Band) UMO Jazz Orchestra - Plays The Music Of Muhal Richard Abrams - 1989, FLAC (tracks+.cue), lossless
Треклист:
UMO Jazz Orchestra / Plays The Music Of Muhal Richard Abrams
Жанр: Free Jazz, Experimental Big Band
Страна-производитель диска: UK
Год издания: 1999
Издатель (лейбл): Slam Productions
Номер по каталогу: SLAMCD 506
Страна: Finland
Аудиокодек: FLAC (*.flac)
Тип рипа: tracks+.cue
Битрейт аудио: lossless
Продолжительность: 42:28
Источник (релизер): свой фирменный диск
Наличие сканов в содержимом раздачи:
Треклист:
1. Big T 9:52
2. Ritob 3:37
3. Half Step 4:59
4. Melancholia 6:40
5. Fortex 7:57
6. Fanfare 3:35
7. Symtre 4:54
 
Лог создания рипа
Exact Audio Copy V1.0 beta 3 from 29. August 2011
EAC extraction logfile from 26. February 2013, 19:45
UMO Jazz Orchestra / Plays The Music Of Muhal Richard Abrams
Used drive : PIONEER DVD-RW DVR-115D Adapter: 0 ID: 0
Read mode : Secure
Utilize accurate stream : Yes
Defeat audio cache : Yes
Make use of C2 pointers : No
Read offset correction : 48
Overread into Lead-In and Lead-Out : No
Fill up missing offset samples with silence : Yes
Delete leading and trailing silent blocks : No
Null samples used in CRC calculations : Yes
Used interface : Installed external ASPI interface
Gap handling : Appended to previous track
Used output format : User Defined Encoder
Selected bitrate : 896 kBit/s
Quality : High
Add ID3 tag : No
Command line compressor : C:\Program Files\Exact Audio Copy\FLAC\FLAC.EXE
Additional command line options : -6 -V -T "ARTIST=%artist%" -T "TITLE=%title%" -T "ALBUM=%albumtitle%" -T "DATE=%year%" -T "TRACKNUMBER=%tracknr%" -T "GENRE=%genre%" -T "COMMENT=%comment%" -T "BAND=%albuminterpret%" -T "COMPOSER=%composer%" %haslyrics%--tag-from-file=LYRICS="%lyricsfile%"%haslyrics% -T "DISCNUMBER=%cdnumber%" -T "TOTALDISCS=%totalcds%" -T "TOTALTRACKS=%numtracks%" %hascover%--picture="%coverfile%"%hascover% %source% -o %dest%
TOC of the extracted CD
Track | Start | Length | Start sector | End sector
---------------------------------------------------------
1 | 0:00.33 | 10:02.62 | 33 | 45244
2 | 10:03.20 | 3:41.63 | 45245 | 61882
3 | 13:45.08 | 5:05.50 | 61883 | 84807
4 | 18:50.58 | 6:47.00 | 84808 | 115332
5 | 25:37.58 | 8:05.00 | 115333 | 151707
6 | 33:42.58 | 3:48.00 | 151708 | 168807
7 | 37:30.58 | 4:57.50 | 168808 | 191132
Track 1
Filename D:\zzz\01 - Big T.wav
Pre-gap length 0:00:02.33
Peak level 89.9 %
Extraction speed 5.0 X
Track quality 100.0 %
Test CRC DD6FE15B
Copy CRC DD6FE15B
Track not present in AccurateRip database
Copy OK
Track 2
Filename D:\zzz\02 - Ritob.wav
Pre-gap length 0:00:02.65
Peak level 86.0 %
Extraction speed 5.2 X
Track quality 100.0 %
Test CRC 823E083F
Copy CRC 823E083F
Track not present in AccurateRip database
Copy OK
Track 3
Filename D:\zzz\03 - Half Step.wav
Pre-gap length 0:00:02.23
Peak level 88.1 %
Extraction speed 5.9 X
Track quality 100.0 %
Test CRC A2F0F910
Copy CRC A2F0F910
Track not present in AccurateRip database
Copy OK
Track 4
Filename D:\zzz\04 - Melancholia.wav
Pre-gap length 0:00:02.40
Peak level 91.1 %
Extraction speed 6.0 X
Track quality 99.9 %
Test CRC 15A82913
Copy CRC 15A82913
Track not present in AccurateRip database
Copy OK
Track 5
Filename D:\zzz\05 - Fortex.wav
Pre-gap length 0:00:02.03
Peak level 88.0 %
Extraction speed 7.1 X
Track quality 100.0 %
Test CRC C5F4F049
Copy CRC C5F4F049
Track not present in AccurateRip database
Copy OK
Track 6
Filename D:\zzz\06 - Fanfare.wav
Pre-gap length 0:00:01.50
Peak level 87.9 %
Extraction speed 6.9 X
Track quality 100.0 %
Test CRC 53F61BC9
Copy CRC 53F61BC9
Track not present in AccurateRip database
Copy OK
Track 7
Filename D:\zzz\07 - Symtre.wav
Pre-gap length 0:00:01.70
Peak level 88.2 %
Extraction speed 7.4 X
Track quality 100.0 %
Test CRC 9CF3A91F
Copy CRC 9CF3A91F
Track not present in AccurateRip database
Copy OK
None of the tracks are present in the AccurateRip database
No errors occurred
End of status report
==== Log checksum 7CD975870EE99FA99939BB5EA6C8C7CEE9ADC53C94ED2B68D079CE2B133F83FC ====
 
Содержание индексной карты (.CUE)
REM GENRE Jazz
REM DATE 1988
REM DISCID 4A09F407
REM COMMENT "ExactAudioCopy v1.0b3"
PERFORMER "UMO Jazz Orchestra"
TITLE "Plays The Music Of Muhal Richard Abrams"
FILE "01 - Big T.wav" WAVE
TRACK 01 AUDIO
TITLE "Big T"
PERFORMER "UMO Jazz Orchestra"
PREGAP 00:00:33
INDEX 01 00:00:00
TRACK 02 AUDIO
TITLE "Ritob"
PERFORMER "UMO Jazz Orchestra"
INDEX 00 09:59:72
FILE "02 - Ritob.wav" WAVE
INDEX 01 00:00:00
TRACK 03 AUDIO
TITLE "Half Step"
PERFORMER "UMO Jazz Orchestra"
INDEX 00 03:39:40
FILE "03 - Half Step.wav" WAVE
INDEX 01 00:00:00
TRACK 04 AUDIO
TITLE "Melancholia"
PERFORMER "UMO Jazz Orchestra"
INDEX 00 05:03:10
FILE "04 - Melancholia.wav" WAVE
INDEX 01 00:00:00
TRACK 05 AUDIO
TITLE "Fortex"
PERFORMER "UMO Jazz Orchestra"
INDEX 00 06:44:72
FILE "05 - Fortex.wav" WAVE
INDEX 01 00:00:00
TRACK 06 AUDIO
TITLE "Fanfare"
PERFORMER "UMO Jazz Orchestra"
INDEX 00 08:03:25
FILE "06 - Fanfare.wav" WAVE
INDEX 01 00:00:00
TRACK 07 AUDIO
TITLE "Symtre"
PERFORMER "UMO Jazz Orchestra"
INDEX 00 03:46:05
FILE "07 - Symtre.wav" WAVE
INDEX 01 00:00:00
 
Лог проверки качества
d:\>d:\aucdtect -d/-m0 d:\zzz\*.wav
auCDtect: CD records authenticity detector, version 0.8.2
Copyright (c) 2004 Oleg Berngardt. All rights reserved.
Copyright (c) 2004 Alexander Djourik. All rights reserved.
------------------------------------------------------------
Processing file: [01. Big T.wav]
------------------------------------------------------------
This track looks like MPEG with probability 73%
------------------------------------------------------------
Processing file: [02. Ritob.wav]
------------------------------------------------------------
This track looks like CDDA with probability 99%
------------------------------------------------------------
Processing file: [03. Half Step.wav]
------------------------------------------------------------
This track looks like CDDA with probability 100%
------------------------------------------------------------
Processing file: [04. Melancholia.wav]
------------------------------------------------------------
This track looks like CDDA with probability 94%
------------------------------------------------------------
Processing file: [05. Fortex.wav]
------------------------------------------------------------
This track looks like CDDA with probability 100%
------------------------------------------------------------
Processing file: [06. Fanfare.wav]
------------------------------------------------------------
This track looks like CDDA with probability 100%
------------------------------------------------------------
Processing file: [07. Symtre.wav]
------------------------------------------------------------
This track looks like CDDA with probability 100%
------------------------------------------------------------
Final Conclusion:
------------------------------------------------------------
These tracks looks like CDDA with probability 100%
Доп. информация:
 
Album Info
All music composed, arranged & conducted by Muhal Richard Abrams except 4. composed by Duke Ellington and arranged by Muhal Richard Abrams
Recorded at MTV Studios, Helsinki, Finland, May 2-5, 1988
Engineer: Harri Sutinen
Mixed at A&R Recording, New York City, September 1-4, 1988
Engineer: Dave Baker
Producers: Esko Linnavalli & Muhal Richard Abrams
Co-producer: Veli-Pekka Heinonen
Originally released in 1989 in Finland by the UMO Jazz Orchestra (UMOCD 101)
 
Состав
Conductor: Muhal Richard Abrams
Saxophones: Pentti Lahti, Teemu Salminen, Eero Koivistoinen, Kari Heinila, Pepa Paivinen
Trombones: Markku Veijonsuo, Mircea Stan, Juhani Aalto, Mikael Langbacka
Trumpets: Chuck Findley, Simo Salminen, Esko Heikkinen, Heikki Haimila
Guitar: Markku Kanerva
Piano: Seppo Kantonen
Synthesizer: Kirmo Lintinen
Bass: Lars Danielsson
Drums: Klaus Suonsaari
Percussion: Mongo Aaltonen
Any questions -> support@pro-jazz.com. По всем вопросам пишите -> support@pro-jazz.com
09:46
294
Нет комментариев. Ваш будет первым!