Вы используете незарегистрированную версию компонента "Вкладки"!

Поиск

(Free Improvisation, Electroacoustic) The Invisible String Quartet - Entomic - 1995, FLAC (tracks+.cue), lossless

(Free Improvisation, Electroacoustic) The Invisible String Quartet - Entomic - 1995, FLAC (tracks+.cue), lossless
Треклист:
The Invisible String Quartet / Entomic
Жанр: Free Improvisation, Electroacoustic
Страна-производитель диска: UK
Год издания: 1995
Издатель (лейбл): Slam Productions
Номер по каталогу: SLAMCD 210
Страна: UK
Аудиокодек: FLAC (*.flac)
Тип рипа: tracks+.cue
Битрейт аудио: lossless
Продолжительность: 66:24
Источник (релизер): свой фирменный диск
Наличие сканов в содержимом раздачи:
Треклист:
1 Insect Flak 5:19
2 Traffic Jam 8:27
3 Marsh Ague 16:31
4 Reincarnation 9:13
5 21cm Band 6:06
6 Bee-line 6:37
7 Ephemera 6:28
8 Lagos Holiday 7:49
 
Лог создания рипа
Exact Audio Copy V1.0 beta 3 from 29. August 2011
EAC extraction logfile from 25. February 2013, 23:25
The Invisible String Quartet / Entomic
Used drive : PIONEER DVD-RW DVR-115D Adapter: 0 ID: 0
Read mode : Secure
Utilize accurate stream : Yes
Defeat audio cache : Yes
Make use of C2 pointers : No
Read offset correction : 48
Overread into Lead-In and Lead-Out : No
Fill up missing offset samples with silence : Yes
Delete leading and trailing silent blocks : No
Null samples used in CRC calculations : Yes
Used interface : Installed external ASPI interface
Gap handling : Appended to previous track
Used output format : User Defined Encoder
Selected bitrate : 896 kBit/s
Quality : High
Add ID3 tag : No
Command line compressor : C:\Program Files\Exact Audio Copy\FLAC\FLAC.EXE
Additional command line options : -6 -V -T "ARTIST=%artist%" -T "TITLE=%title%" -T "ALBUM=%albumtitle%" -T "DATE=%year%" -T "TRACKNUMBER=%tracknr%" -T "GENRE=%genre%" -T "COMMENT=%comment%" -T "BAND=%albuminterpret%" -T "COMPOSER=%composer%" %haslyrics%--tag-from-file=LYRICS="%lyricsfile%"%haslyrics% -T "DISCNUMBER=%cdnumber%" -T "TOTALDISCS=%totalcds%" -T "TOTALTRACKS=%numtracks%" %hascover%--picture="%coverfile%"%hascover% %source% -o %dest%
TOC of the extracted CD
Track | Start | Length | Start sector | End sector
---------------------------------------------------------
1 | 0:00.32 | 5:20.13 | 32 | 24044
2 | 5:20.45 | 8:27.32 | 24045 | 62101
3 | 13:48.02 | 16:29.45 | 62102 | 136321
4 | 30:17.47 | 9:14.10 | 136322 | 177881
5 | 39:31.57 | 6:02.38 | 177882 | 205069
6 | 45:34.20 | 6:35.20 | 205070 | 234714
7 | 52:09.40 | 6:28.45 | 234715 | 263859
8 | 58:38.10 | 7:47.17 | 263860 | 298901
Track 1
Filename D:\zzz\01 - Insect Flak.wav
Pre-gap length 0:00:02.32
Peak level 96.8 %
Extraction speed 4.9 X
Track quality 100.0 %
Test CRC 631CF808
Copy CRC 631CF808
Track not present in AccurateRip database
Copy OK
Track 2
Filename D:\zzz\02 - Traffic Jam.wav
Pre-gap length 0:00:02.73
Peak level 96.6 %
Extraction speed 5.9 X
Track quality 100.0 %
Test CRC 9DD90259
Copy CRC 9DD90259
Track not present in AccurateRip database
Copy OK
Track 3
Filename D:\zzz\03 - Marsh Ague.wav
Pre-gap length 0:00:04.17
Peak level 90.8 %
Extraction speed 7.2 X
Track quality 100.0 %
Test CRC E7D245F6
Copy CRC E7D245F6
Track not present in AccurateRip database
Copy OK
Track 4
Filename D:\zzz\04 - Reincarnation.wav
Pre-gap length 0:00:03.55
Peak level 92.1 %
Extraction speed 7.9 X
Track quality 100.0 %
Test CRC A081C71D
Copy CRC A081C71D
Track not present in AccurateRip database
Copy OK
Track 5
Filename D:\zzz\05 - 21cm Band.wav
Pre-gap length 0:00:02.22
Peak level 86.7 %
Extraction speed 7.4 X
Track quality 99.9 %
Test CRC 46530CBA
Copy CRC 46530CBA
Track not present in AccurateRip database
Copy OK
Track 6
Filename D:\zzz\06 - Bee-Line.wav
Pre-gap length 0:00:02.08
Peak level 93.8 %
Extraction speed 8.5 X
Track quality 100.0 %
Test CRC 263A0484
Copy CRC 263A0484
Track not present in AccurateRip database
Copy OK
Track 7
Filename D:\zzz\07 - Ephemera.wav
Pre-gap length 0:00:03.10
Peak level 66.7 %
Extraction speed 8.8 X
Track quality 100.0 %
Test CRC F5D1C1AA
Copy CRC F5D1C1AA
Track not present in AccurateRip database
Copy OK
Track 8
Filename D:\zzz\08 - Lagos Holiday.wav
Pre-gap length 0:00:03.05
Peak level 64.0 %
Extraction speed 9.3 X
Track quality 100.0 %
Test CRC E3E00FFA
Copy CRC E3E00FFA
Track not present in AccurateRip database
Copy OK
None of the tracks are present in the AccurateRip database
No errors occurred
End of status report
==== Log checksum BD6E1BA6CC842AE999B6835233DA3C8CE40730C4434F7C143FAB6F67219A5088 ====
 
Содержание индексной карты (.CUE)
REM GENRE Avantgarde
REM DATE 1995
REM DISCID 5A0F9108
REM COMMENT "ExactAudioCopy v1.0b3"
PERFORMER "The Invisible String Quartet"
TITLE "Entomic"
FILE "01 - Insect Flak.wav" WAVE
TRACK 01 AUDIO
TITLE "Insect Flak"
PERFORMER "The Invisible String Quartet"
PREGAP 00:00:32
INDEX 01 00:00:00
TRACK 02 AUDIO
TITLE "Traffic Jam"
PERFORMER "The Invisible String Quartet"
INDEX 00 05:17:15
FILE "02 - Traffic Jam.wav" WAVE
INDEX 01 00:00:00
TRACK 03 AUDIO
TITLE "Marsh Ague"
PERFORMER "The Invisible String Quartet"
INDEX 00 08:23:15
FILE "03 - Marsh Ague.wav" WAVE
INDEX 01 00:00:00
TRACK 04 AUDIO
TITLE "Reincarnation"
PERFORMER "The Invisible String Quartet"
INDEX 00 16:25:65
FILE "04 - Reincarnation.wav" WAVE
INDEX 01 00:00:00
TRACK 05 AUDIO
TITLE "21cm Band"
PERFORMER "The Invisible String Quartet"
INDEX 00 09:11:63
FILE "05 - 21cm Band.wav" WAVE
INDEX 01 00:00:00
TRACK 06 AUDIO
TITLE "Bee-Line"
PERFORMER "The Invisible String Quartet"
INDEX 00 06:00:30
FILE "06 - Bee-Line.wav" WAVE
INDEX 01 00:00:00
TRACK 07 AUDIO
TITLE "Ephemera"
PERFORMER "The Invisible String Quartet"
INDEX 00 06:32:10
FILE "07 - Ephemera.wav" WAVE
INDEX 01 00:00:00
TRACK 08 AUDIO
TITLE "Lagos Holiday"
PERFORMER "The Invisible String Quartet"
INDEX 00 06:25:40
FILE "08 - Lagos Holiday.wav" WAVE
INDEX 01 00:00:00
 
Лог проверки качества
d:\>d:\aucdtect -d/-m0 d:\zzz\*.wav
auCDtect: CD records authenticity detector, version 0.8.2
Copyright (c) 2004 Oleg Berngardt. All rights reserved.
Copyright (c) 2004 Alexander Djourik. All rights reserved.
------------------------------------------------------------
Processing file: [01. Insect Flak.wav]
------------------------------------------------------------
This track looks like CDDA with probability 100%
------------------------------------------------------------
Processing file: [02. Traffic Jam.wav]
------------------------------------------------------------
This track looks like MPEG with probability 99%
------------------------------------------------------------
Processing file: [03. Marsh Ague.wav]
------------------------------------------------------------
This track looks like MPEG with probability 100%
------------------------------------------------------------
Processing file: [04. Reincarnation.wav]
------------------------------------------------------------
This track looks like CDDA with probability 99%
------------------------------------------------------------
Processing file: [05. 21cm Band.wav]
------------------------------------------------------------
This track looks like CDDA with probability 100%
------------------------------------------------------------
Processing file: [06. Bee-Line.wav]
------------------------------------------------------------
This track looks like CDDA with probability 100%
------------------------------------------------------------
Processing file: [07. Ephemera.wav]
------------------------------------------------------------
This track looks like CDDA with probability 100%
------------------------------------------------------------
Processing file: [08. Lagos Holiday.wav]
------------------------------------------------------------
This track looks like CDDA with probability 100%
------------------------------------------------------------
Final Conclusion:
------------------------------------------------------------
Could not qualify the source of these tracks.
Доп. информация:
 
Album Info, Audion Review
Recorded directly to DAT between October 21st & 25th 1994, at The Pantry, London N16.
Thanks to Jonathan Reed (are you still out there?) who I believe coined the expression 'Insect Flak'.
Having seen Dave Draper's mythical invisible STring Quartet at Electronica, I was certainly eager to hear what his CD was like! I've always been fascinated with guitars and devices, and what Dave Draper did was quite extraordinary. So, would the CD be as radical? Yes, and some! Scarcely on some pieces would you even realise this is guitar music, as all manner of rotating and cycling sounds, juddering and scuttling around, add up to make something closer to electroacoustic music. Some of this is quite different to what I heard him do live though, like Traffic Jam which feels more like Hans Reichel caught up in a melange of looping patterns, and then there's the expansive and confused textures of the 16 minute Marsh Ague. From the realms of Robert Fripp, through the most radical experiments of Fred Frith, Dave Draper offers a startling melange of melodic textures, abstract rhythm and dissonance. Alan Freeman
 
Состав
Guitar, Guitar [Prepared], Electronics [Digital Delays, Samplers] – Dave Draper
Any questions -> support@pro-jazz.com. По всем вопросам пишите -> support@pro-jazz.com
09:45
225
Нет комментариев. Ваш будет первым!