Вы используете незарегистрированную версию компонента "Вкладки"!

Поиск

(Free Jazz, Progressive Big Band) Either/Orchestra - More Beautiful Than Death - 2000, FLAC (tracks+.cue), lossless

(Free Jazz, Progressive Big Band) Either/Orchestra - More Beautiful Than Death - 2000, FLAC (tracks+.cue), lossless
Треклист:
Either/Orchestra / More Beautiful Than Death
Жанр: Free Jazz, Progressive Big Band
Страна-производитель диска: US
Год издания: 2000
Издатель (лейбл): Accurate Records
Номер по каталогу: AC-3282
Страна: US
Аудиокодек: FLAC (*.flac)
Тип рипа: tracks+.cue
Битрейт аудио: lossless
Продолжительность: 74:00
Источник (релизер): свой фирменный диск
Наличие сканов в содержимом раздачи:
Треклист:
1. Amiak Abet Abet 10:03
2. Number Three 10:20
Bass – Atemu Aton Saxophone [Alto] – Miguel Zenon
3. More Beautiful Than Death 10:46
4. Musicawi Silt 6:21
5. Breaktime For Dougo 8:35
6. All Those Sobs 8:58
7. Slow Mambo For Jj 4:53
8. Feker Aydelmwey 7:09
9. The Eighth Wonder 6:54
 
Лог создания рипа
Exact Audio Copy V1.0 beta 3 from 29. August 2011
EAC extraction logfile from 1. March 2013, 19:57
Either Orchestra / More Beautiful Than Death
Used drive : PIONEER DVD-RW DVR-115D Adapter: 0 ID: 0
Read mode : Secure
Utilize accurate stream : Yes
Defeat audio cache : Yes
Make use of C2 pointers : No
Read offset correction : 48
Overread into Lead-In and Lead-Out : No
Fill up missing offset samples with silence : Yes
Delete leading and trailing silent blocks : No
Null samples used in CRC calculations : Yes
Used interface : Installed external ASPI interface
Gap handling : Appended to previous track
Used output format : User Defined Encoder
Selected bitrate : 896 kBit/s
Quality : High
Add ID3 tag : No
Command line compressor : C:\Program Files\Exact Audio Copy\FLAC\FLAC.EXE
Additional command line options : -6 -V -T "ARTIST=%artist%" -T "TITLE=%title%" -T "ALBUM=%albumtitle%" -T "DATE=%year%" -T "TRACKNUMBER=%tracknr%" -T "GENRE=%genre%" -T "COMMENT=%comment%" -T "BAND=%albuminterpret%" -T "COMPOSER=%composer%" %haslyrics%--tag-from-file=LYRICS="%lyricsfile%"%haslyrics% -T "DISCNUMBER=%cdnumber%" -T "TOTALDISCS=%totalcds%" -T "TOTALTRACKS=%numtracks%" %hascover%--picture="%coverfile%"%hascover% %source% -o %dest%
TOC of the extracted CD
Track | Start | Length | Start sector | End sector
---------------------------------------------------------
1 | 0:00.00 | 10:01.20 | 0 | 45094
2 | 10:01.20 | 10:22.42 | 45095 | 91786
3 | 20:23.62 | 10:44.70 | 91787 | 140156
4 | 31:08.57 | 6:21.08 | 140157 | 168739
5 | 37:29.65 | 8:37.42 | 168740 | 207556
6 | 46:07.32 | 8:56.70 | 207557 | 247826
7 | 55:04.27 | 4:53.20 | 247827 | 269821
8 | 59:57.47 | 7:08.35 | 269822 | 301956
9 | 67:06.07 | 6:54.28 | 301957 | 333034
Track 1
Filename D:\zzz\01 - Amiak Abet Abet.wav
Pre-gap length 0:00:02.00
Peak level 92.1 %
Extraction speed 5.0 X
Track quality 99.9 %
Test CRC E8E78E45
Copy CRC E8E78E45
Accurately ripped (confidence 5) [1F2F1CD2] (AR v1)
Copy OK
Track 2
Filename D:\zzz\02 - Number Three.wav
Peak level 83.0 %
Extraction speed 6.3 X
Track quality 100.0 %
Test CRC 2BA2359E
Copy CRC 2BA2359E
Accurately ripped (confidence 5) [FC7454E5] (AR v1)
Copy OK
Track 3
Filename D:\zzz\03 - More Beautiful Than Death.wav
Pre-gap length 0:00:02.02
Peak level 69.8 %
Extraction speed 7.2 X
Track quality 100.0 %
Test CRC 9E7C7C7B
Copy CRC 9E7C7C7B
Accurately ripped (confidence 5) [BDF17D8B] (AR v1)
Copy OK
Track 4
Filename D:\zzz\04 - Musicawi Silt.wav
Peak level 80.9 %
Extraction speed 6.9 X
Track quality 99.9 %
Test CRC D1F8D151
Copy CRC D1F8D151
Accurately ripped (confidence 5) [012EA930] (AR v1)
Copy OK
Track 5
Filename D:\zzz\05 - Breaktime For Dougo.wav
Peak level 76.0 %
Extraction speed 7.7 X
Track quality 99.9 %
Test CRC 4BE49A1C
Copy CRC 4BE49A1C
Accurately ripped (confidence 5) [45E7053C] (AR v1)
Copy OK
Track 6
Filename D:\zzz\06 - All Those Sob's.wav
Pre-gap length 0:00:01.65
Peak level 77.3 %
Extraction speed 8.7 X
Track quality 100.0 %
Test CRC E8A4D42E
Copy CRC E8A4D42E
Accurately ripped (confidence 5) [8190C99A] (AR v1)
Copy OK
Track 7
Filename D:\zzz\07 - Slow Mambo For JJ.wav
Peak level 98.7 %
Extraction speed 8.5 X
Track quality 100.0 %
Test CRC F52E0770
Copy CRC F52E0770
Accurately ripped (confidence 5) [922F5184] (AR v1)
Copy OK
Track 8
Filename D:\zzz\08 - Feker Aydelmwey.wav
Peak level 95.6 %
Extraction speed 9.2 X
Track quality 100.0 %
Test CRC 505D7E57
Copy CRC 505D7E57
Accurately ripped (confidence 5) [1EF98A1D] (AR v1)
Copy OK
Track 9
Filename D:\zzz\09 - The Eight Wonder.wav
Peak level 74.4 %
Extraction speed 9.4 X
Track quality 100.0 %
Test CRC 9F72D24D
Copy CRC 9F72D24D
Accurately ripped (confidence 4) [4C0D358E] (AR v1)
Copy OK
All tracks accurately ripped
No errors occurred
End of status report
==== Log checksum 86435790D5A2CEBCDA27CFF2BFD4A237858EC4CED66B779B509CBB5F7DC14A52 ====
 
Содержание индексной карты (.CUE)
REM GENRE Jazz
REM DATE 2000
REM DISCID 7B115809
REM COMMENT "ExactAudioCopy v1.0b3"
PERFORMER "Either Orchestra"
TITLE "More Beautiful Than Death"
FILE "01 - Amiak Abet Abet.wav" WAVE
TRACK 01 AUDIO
TITLE "Amiak Abet Abet"
PERFORMER "Either Orchestra"
INDEX 01 00:00:00
FILE "02 - Number Three.wav" WAVE
TRACK 02 AUDIO
TITLE "Number Three"
PERFORMER "Either Orchestra"
INDEX 01 00:00:00
TRACK 03 AUDIO
TITLE "More Beautiful Than Death"
PERFORMER "Either Orchestra"
INDEX 00 10:20:40
FILE "03 - More Beautiful Than Death.wav" WAVE
INDEX 01 00:00:00
FILE "04 - Musicawi Silt.wav" WAVE
TRACK 04 AUDIO
TITLE "Musicawi Silt"
PERFORMER "Either Orchestra"
INDEX 01 00:00:00
FILE "05 - Breaktime For Dougo.wav" WAVE
TRACK 05 AUDIO
TITLE "Breaktime For Dougo"
PERFORMER "Either Orchestra"
INDEX 01 00:00:00
TRACK 06 AUDIO
TITLE "All Those Sob's"
PERFORMER "Either Orchestra"
INDEX 00 08:35:52
FILE "06 - All Those Sob's.wav" WAVE
INDEX 01 00:00:00
FILE "07 - Slow Mambo For JJ.wav" WAVE
TRACK 07 AUDIO
TITLE "Slow Mambo For JJ"
PERFORMER "Either Orchestra"
INDEX 01 00:00:00
FILE "08 - Feker Aydelmwey.wav" WAVE
TRACK 08 AUDIO
TITLE "Feker Aydelmwey"
PERFORMER "Either Orchestra"
INDEX 01 00:00:00
FILE "09 - The Eight Wonder.wav" WAVE
TRACK 09 AUDIO
TITLE "The Eight Wonder"
PERFORMER "Either Orchestra"
INDEX 01 00:00:00
 
Лог проверки качества
d:\>d:\aucdtect -d/-m0 d:\zzz\*.wav
auCDtect: CD records authenticity detector, version 0.8.2
Copyright (c) 2004 Oleg Berngardt. All rights reserved.
Copyright (c) 2004 Alexander Djourik. All rights reserved.
------------------------------------------------------------
Processing file: [01. Amiak Abet Abet.wav]
------------------------------------------------------------
This track looks like CDDA with probability 100%
------------------------------------------------------------
Processing file: [02. Number Three.wav]
------------------------------------------------------------
This track looks like CDDA with probability 100%
------------------------------------------------------------
Processing file: [03. More Beautiful Than Death.wav]
------------------------------------------------------------
This track looks like CDDA with probability 100%
------------------------------------------------------------
Processing file: [04. Musicawi Silt.wav]
------------------------------------------------------------
This track looks like CDDA with probability 99%
------------------------------------------------------------
Processing file: [05. Breaktime For Dougo.wav]
------------------------------------------------------------
This track looks like CDDA with probability 100%
------------------------------------------------------------
Processing file: [06. All Those Sob's.wav]
------------------------------------------------------------
This track looks like CDDA with probability 100%
------------------------------------------------------------
Processing file: [07. Slow Mambo For JJ.wav]
------------------------------------------------------------
This track looks like CDDA with probability 100%
------------------------------------------------------------
Processing file: [08. Feker Aydelmwey.wav]
------------------------------------------------------------
This track looks like CDDA with probability 100%
------------------------------------------------------------
Processing file: [09. The Eight Wonder.wav]
------------------------------------------------------------
This track looks like CDDA with probability 100%
------------------------------------------------------------
Final Conclusion:
------------------------------------------------------------
These tracks looks like CDDA with probability 100%
Доп. информация:
 
AMG Review
For their first album in four years, a renewed and re-personnelled Either/Orchestra dips into their own archives and also into the far reaches of ethnomusicology. Along with a half-dozen compositions by founder/leader/sax man Russ Gershon, the E/O have arranged a trio of popular tunes from Ethiopia into a disjointed suite which runs throughout the album. In the Brubeck-ian first installment, "Amiak Abet Abet," Gershon and longtime E/O trumpeter Tom Halter take vocal roles amid elephantine brass blasts. "Musicawi Silt" is a Hammond-tinged noir-y polyrhythm created by the band through a year of live performance. Gershon takes the lyrical line again for "Feker Aydelmwey," but the rhythm line is much more dramatic and responsive than in the other parts. The album's epic title track is more than true to its name, sweeping in with Gil Evans horns and tumbling drums then cooling to a slow swing. The second song, "Number Three," is a funky doubled-bass number, while "Breaktime for Dougo" has a distinctive calypso flair. A high low point of the album is "All Those SOBs," a sluggishly bluesy tribute to the wonderful people who make the music industry what it is. And it all ends up with the appropriately titled ninth track, "Eighth Wonder," a slowly twirling combo of "Mercy, Mercy, Mercy" with a touch of Little Stevie Wonder.
 
Состав
Bass – Rick McLaughlin
Congas, Bongos, Percussion – Vicente Lebron
Drums – Harvey Wirht
Piano, Organ – Dan Kaufman
Saxophone [Alto] – Jaleel Shaw
Saxophone [Baritone] – Charlie Kohlhase
Saxophone [Tenor], Saxophone [Soprano], Producer, Mixed By – Russ Gershon
Trombone – Joel Yennior
Trumpet, Flugelhorn – Colin Fisher, Tom Halter
Any questions -> support@pro-jazz.com. По всем вопросам пишите -> support@pro-jazz.com
09:47
259
Нет комментариев. Ваш будет первым!