Поиск

(Free Jazz, European Free Jazz) [CD] Martin Speicher, Georg Wolf, Lou Grassi - Shapes And Shadows - 2007, FLAC (tracks+.cue), lossless

(Free Jazz, European Free Jazz) [CD] Martin Speicher, Georg Wolf, Lou Grassi - Shapes And Shadows - 2007, FLAC (tracks+.cue), lossless
Треклист:
Martin Speicher, Georg Wolf, Lou Grassi / Shapes And Shadows
Жанр: Free Jazz, European Free Jazz
Носитель: CD
Страна-производитель диска (релиза): Portugal
Год издания: 2007
Издатель (лейбл): Clean Feed
Номер по каталогу: CF084CD
Страна исполнителя (группы): Germany
Аудиокодек: FLAC (*.flac)
Тип рипа: tracks+.cue
Битрейт аудио: lossless
Продолжительность: 51:28
Источник (релизер): свой фирменный диск
Наличие сканов в содержимом раздачи:
Треклист:
1. Please, Confirm! 12:22
2. Le Star 5:12
3. Claire's Net 8:18
4. Your Hope 3:28
5. Alors! Bill Dit 7:42
6. Shapes And Shadows 14:17
 
Лог создания рипа
Exact Audio Copy V1.0 beta 3 from 29. August 2011
EAC extraction logfile from 6. December 2014, 19:32
Martin Speicher, Georg Wolf, Lou Grassi / Shapes And Shadows
Used drive : PIONEER DVD-RW DVR-115D Adapter: 0 ID: 0
Read mode : Secure
Utilize accurate stream : Yes
Defeat audio cache : Yes
Make use of C2 pointers : No
Read offset correction : 48
Overread into Lead-In and Lead-Out : No
Fill up missing offset samples with silence : Yes
Delete leading and trailing silent blocks : No
Null samples used in CRC calculations : Yes
Used interface : Installed external ASPI interface
Gap handling : Appended to previous track
Used output format : User Defined Encoder
Selected bitrate : 768 kBit/s
Quality : High
Add ID3 tag : No
Command line compressor : C:\Program Files\Exact Audio Copy\Flac\flac.exe
Additional command line options : -6 -V -T "ARTIST=%artist%" -T "TITLE=%title%" -T "ALBUM=%albumtitle%" -T "DATE=%year%" -T "TRACKNUMBER=%tracknr%" -T "GENRE=%genre%" -T "COMMENT=%comment%" -T "BAND=%albuminterpret%" -T "COMPOSER=%composer%" %haslyrics%--tag-from-file=LYRICS="%lyricsfile%"%haslyrics% -T "DISCNUMBER=%cdnumber%" -T "TOTALDISCS=%totalcds%" -T "TOTALTRACKS=%numtracks%" %hascover%--picture="%coverfile%"%hascover% %source% -o %dest%
TOC of the extracted CD
Track | Start | Length | Start sector | End sector
---------------------------------------------------------
1 | 0:00.00 | 12:25.39 | 0 | 55913
2 | 12:25.39 | 5:12.60 | 55914 | 79373
3 | 17:38.24 | 8:20.44 | 79374 | 116917
4 | 25:58.68 | 3:32.23 | 116918 | 132840
5 | 29:31.16 | 7:44.25 | 132841 | 167665
6 | 37:15.41 | 14:12.03 | 167666 | 231568
Track 1
Filename D:\zzz\01 - Please, Confirm!.wav
Pre-gap length 0:00:02.00
Peak level 84.9 %
Extraction speed 5.0 X
Track quality 99.9 %
Test CRC 29F763A0
Copy CRC 29F763A0
Accurately ripped (confidence 2) [7A1D1FEE] (AR v2)
Copy OK
Track 2
Filename D:\zzz\02 - Le Star.wav
Peak level 95.5 %
Extraction speed 5.7 X
Track quality 100.0 %
Test CRC 2683A581
Copy CRC 2683A581
Accurately ripped (confidence 2) [B7D64BDB] (AR v2)
Copy OK
Track 3
Filename D:\zzz\03 - Claire's Net.wav
Peak level 91.7 %
Extraction speed 6.5 X
Track quality 100.0 %
Test CRC 10DC3EAD
Copy CRC 10DC3EAD
Accurately ripped (confidence 2) [589CF852] (AR v2)
Copy OK
Track 4
Filename D:\zzz\04 - Your Hope.wav
Peak level 48.6 %
Extraction speed 6.4 X
Track quality 100.0 %
Test CRC 6E55C39A
Copy CRC 6E55C39A
Accurately ripped (confidence 2) [96169F8A] (AR v2)
Copy OK
Track 5
Filename D:\zzz\05 - Alors! Bill Dit.wav
Peak level 93.7 %
Extraction speed 7.3 X
Track quality 100.0 %
Test CRC E32B3F0F
Copy CRC E32B3F0F
Accurately ripped (confidence 2) [0CD7EDB9] (AR v2)
Copy OK
Track 6
Filename D:\zzz\06 - Shapes And Shadows.wav
Peak level 93.4 %
Extraction speed 8.2 X
Track quality 100.0 %
Test CRC 51D2648E
Copy CRC 51D2648E
Accurately ripped (confidence 2) [E2ADE1D2] (AR v2)
Copy OK
All tracks accurately ripped
No errors occurred
End of status report
==== Log checksum 263D36603424F84AC5504B018C4ED8E70FCED99C66C813B300E4EAA731DB27CC ====
 
Содержание индексной карты (.CUE)
REM GENRE "Free Jazz"
REM DATE 2007
REM DISCID 470C0F06
REM COMMENT "ExactAudioCopy v1.0b3"
PERFORMER "Martin Speicher, Georg Wolf, Lou Grassi"
TITLE "Shapes And Shadows"
FILE "01 - Please, Confirm!.wav" WAVE
TRACK 01 AUDIO
TITLE "Please, Confirm!"
PERFORMER "Martin Speicher, Georg Wolf, Lou Grassi"
FLAGS DCP
INDEX 01 00:00:00
FILE "02 - Le Star.wav" WAVE
TRACK 02 AUDIO
TITLE "Le Star"
PERFORMER "Martin Speicher, Georg Wolf, Lou Grassi"
FLAGS DCP
INDEX 01 00:00:00
FILE "03 - Claire's Net.wav" WAVE
TRACK 03 AUDIO
TITLE "Claire's Net"
PERFORMER "Martin Speicher, Georg Wolf, Lou Grassi"
FLAGS DCP
INDEX 01 00:00:00
FILE "04 - Your Hope.wav" WAVE
TRACK 04 AUDIO
TITLE "Your Hope"
PERFORMER "Martin Speicher, Georg Wolf, Lou Grassi"
FLAGS DCP
INDEX 01 00:00:00
FILE "05 - Alors! Bill Dit.wav" WAVE
TRACK 05 AUDIO
TITLE "Alors! Bill Dit"
PERFORMER "Martin Speicher, Georg Wolf, Lou Grassi"
FLAGS DCP
INDEX 01 00:00:00
FILE "06 - Shapes And Shadows.wav" WAVE
TRACK 06 AUDIO
TITLE "Shapes And Shadows"
PERFORMER "Martin Speicher, Georg Wolf, Lou Grassi"
FLAGS DCP
INDEX 01 00:00:00
 
Лог проверки качества
d:\>d:\aucdtect -d/-m0 d:\zzz\*.wav
auCDtect: CD records authenticity detector, version 0.8.2
Copyright (c) 2004 Oleg Berngardt. All rights reserved.
Copyright (c) 2004 Alexander Djourik. All rights reserved.
------------------------------------------------------------
Processing file: [01. Please, Confirm!.wav]
------------------------------------------------------------
This track looks like CDDA with probability 100%
------------------------------------------------------------
Processing file: [02. Le Star.wav]
------------------------------------------------------------
This track looks like CDDA with probability 100%
------------------------------------------------------------
Processing file: [03. Claire's Net.wav]
------------------------------------------------------------
This track looks like CDDA with probability 100%
------------------------------------------------------------
Processing file: [04. Your Hope.wav]
------------------------------------------------------------
This track looks like CDDA with probability 99%
------------------------------------------------------------
Processing file: [05. Alors! Bill Dit.wav]
------------------------------------------------------------
This track looks like CDDA with probability 100%
------------------------------------------------------------
Processing file: [06. Shapes And Shadows.wav]
------------------------------------------------------------
This track looks like CDDA with probability 100%
------------------------------------------------------------
Final Conclusion:
------------------------------------------------------------
These tracks looks like CDDA with probability 100%
Доп. информация:
 
Album Info & Review
All compositions by Martin Speicher, Georg Wolf and Lou Grassi
Recorded January 17th, 2006 at Tonstudio Ebel, Kassel (Germany) by Rudiger Ebel
Mixed by Rudiger Ebel, Martin Speicher, Georg Wolf
Mastered by Rudiger Ebel
Produced by Martin Speicher
Executive production by Trem Azul
Design by Rui Garrido
Cover photograph by A. Mateur
Group photo by Ulrike Lentz
Liner notes: Werner Merz, May 5, 2007
The hunch of ignorance that prangs my presumption when listening to excellent musicians whose work I never met before reappeared after the first contact with this beautiful album, chock full of intracutaneous interplay, inventive ingeniousness and technical wizardry but also gifted with a passionate vibe which is rare to find these days. Speicher is an alto saxophone and clarinet virtuoso, capable to deliver burning dissonant flurries at the wink of an eye, or instead decide that a little less of foot on the gas can work wonders, a perfect example being the beginning of the title track, a fourteen-minute inning of immaculate improvisation ending the CD in splendid fashion. Wolf listens and digests, only to mentally rearrange what he just heard and instantly spit out well-rounded contrapuntal designs that sustain Speicher’s flight like a mother goose does with her ducklings. Grassi is the prototype of drummer who desperately tries to avoid having his skins behaving like…skins; in truth, he would extract the right nuances by hitting abandoned cars in a forsaken site. “Shapes and shadows” was the comforting soundtrack to my train routine in a horribly grey, rainy October morning. Looking at the buildings of the urban peripheries, then at the sleepy faces of the immigrants, then again at the affected laughter of the sharp-dressed yet penniless commuters while being pervaded by this record (to which I’ve already been returning several times since) made me feel somehow lucky even in a very hard period; that’s what consciousness can achieve through powerful music. This trio releases that kind of power in abundant quantities. Highly recommended. - Massimo Ricci, Touching Extremes
 
Состав
Martin Speicher: alto saxophone, clarinet
Georg Wolf: double bass
Lou Grassi: drums, percussion
08:06
316
Нет комментариев. Ваш будет первым!