Вы используете незарегистрированную версию компонента "Вкладки"!

Поиск

(Free Improvisation, Electroacoustic, Creative Sources) [CD] Ernesto Rodrigues, Guilherme Rodrigues, Oren Marshall, Carlos Santos, Jose Oliveira - Kinetics - 2006, FLAC (tracks+.cue), lossless

(Free Improvisation, Electroacoustic, Creative Sources) [CD] Ernesto Rodrigues, Guilherme Rodrigues, Oren Marshall, Carlos Santos, Jose Oliveira - Kinetics - 2006, FLAC (tracks+.cue), lossless
Треклист:
Ernesto Rodrigues, Guilherme Rodrigues, Oren Marshall, Carlos Santos, Jose Oliveira / Kinetics
Жанр: Free Improvisation, Electroacoustic, Creative Sources
Носитель: CD
Страна-производитель диска (релиза): Portugal
Год издания: 2006
Издатель (лейбл): Creative Sources
Номер по каталогу: cs 043 cd
Страна исполнителя (группы): Portugal
Аудиокодек: FLAC (*.flac)
Тип рипа: tracks+.cue
Битрейт аудио: lossless
Продолжительность: 44:57
Источник (релизер): свой фирменный диск
Наличие сканов в содержимом раздачи:
Треклист:
1. Kinetics 1
2. Kinetics 2
3. Kinetics 3
4. Kinetics 4
5. Kinetics 5
6. Kinetics 6
7. Kinetics 7
8. Kinetics 8
 
Лог создания рипа
Exact Audio Copy V1.0 beta 3 from 29. August 2011
EAC extraction logfile from 6. December 2014, 15:55
Ernesto Rodrigues, Guilherme Rodrigues, Oren Marshall, Carlos Santos, Jose Oliveira / Kinetics
Used drive : PIONEER DVD-RW DVR-115D Adapter: 0 ID: 0
Read mode : Secure
Utilize accurate stream : Yes
Defeat audio cache : Yes
Make use of C2 pointers : No
Read offset correction : 48
Overread into Lead-In and Lead-Out : No
Fill up missing offset samples with silence : Yes
Delete leading and trailing silent blocks : No
Null samples used in CRC calculations : Yes
Used interface : Installed external ASPI interface
Gap handling : Appended to previous track
Used output format : User Defined Encoder
Selected bitrate : 768 kBit/s
Quality : High
Add ID3 tag : No
Command line compressor : C:\Program Files\Exact Audio Copy\Flac\flac.exe
Additional command line options : -6 -V -T "ARTIST=%artist%" -T "TITLE=%title%" -T "ALBUM=%albumtitle%" -T "DATE=%year%" -T "TRACKNUMBER=%tracknr%" -T "GENRE=%genre%" -T "COMMENT=%comment%" -T "BAND=%albuminterpret%" -T "COMPOSER=%composer%" %haslyrics%--tag-from-file=LYRICS="%lyricsfile%"%haslyrics% -T "DISCNUMBER=%cdnumber%" -T "TOTALDISCS=%totalcds%" -T "TOTALTRACKS=%numtracks%" %hascover%--picture="%coverfile%"%hascover% %source% -o %dest%
TOC of the extracted CD
Track | Start | Length | Start sector | End sector
---------------------------------------------------------
1 | 0:00.00 | 5:59.00 | 0 | 26924
2 | 5:59.00 | 8:03.00 | 26925 | 63149
3 | 14:02.00 | 4:06.58 | 63150 | 81657
4 | 18:08.58 | 4:54.72 | 81658 | 103779
5 | 23:03.55 | 6:35.00 | 103780 | 133404
6 | 29:38.55 | 4:15.00 | 133405 | 152529
7 | 33:53.55 | 6:23.72 | 152530 | 181326
8 | 40:17.52 | 4:39.11 | 181327 | 202262
Track 1
Filename D:\zzz\01 - Kinetics 1.wav
Pre-gap length 0:00:02.00
Peak level 99.8 %
Extraction speed 4.6 X
Track quality 100.0 %
Test CRC 69880656
Copy CRC 69880656
Track not present in AccurateRip database
Copy OK
Track 2
Filename D:\zzz\02 - Kinetics 2.wav
Pre-gap length 0:00:05.00
Peak level 100.0 %
Extraction speed 5.5 X
Track quality 100.0 %
Test CRC D346B1EB
Copy CRC D346B1EB
Track not present in AccurateRip database
Copy OK
Track 3
Filename D:\zzz\03 - Kinetics 3.wav
Pre-gap length 0:00:05.00
Peak level 100.0 %
Extraction speed 5.6 X
Track quality 100.0 %
Test CRC ACFE6017
Copy CRC ACFE6017
Track not present in AccurateRip database
Copy OK
Track 4
Filename D:\zzz\04 - Kinetics 4.wav
Pre-gap length 0:00:05.00
Peak level 100.0 %
Extraction speed 6.1 X
Track quality 100.0 %
Test CRC E9F2BFD9
Copy CRC E9F2BFD9
Track not present in AccurateRip database
Copy OK
Track 5
Filename D:\zzz\05 - Kinetics 5.wav
Pre-gap length 0:00:05.00
Peak level 100.0 %
Extraction speed 6.8 X
Track quality 100.0 %
Test CRC 9BAD9B61
Copy CRC 9BAD9B61
Track not present in AccurateRip database
Copy OK
Track 6
Filename D:\zzz\06 - Kinetics 6.wav
Pre-gap length 0:00:05.00
Peak level 100.0 %
Extraction speed 6.8 X
Track quality 100.0 %
Test CRC 695DCB06
Copy CRC 695DCB06
Track not present in AccurateRip database
Copy OK
Track 7
Filename D:\zzz\07 - Kinetics 7.wav
Pre-gap length 0:00:05.00
Peak level 100.0 %
Extraction speed 7.5 X
Track quality 100.0 %
Test CRC 30FFA46C
Copy CRC 30FFA46C
Track not present in AccurateRip database
Copy OK
Track 8
Filename D:\zzz\08 - Kinetics 8.wav
Pre-gap length 0:00:05.00
Peak level 100.0 %
Extraction speed 7.5 X
Track quality 100.0 %
Test CRC DC8AF439
Copy CRC DC8AF439
Track not present in AccurateRip database
Copy OK
None of the tracks are present in the AccurateRip database
No errors occurred
End of status report
==== Log checksum 3B640C920CBBAE99B8DBB9A50487300A678888DC9676EC63790D16700947EA49 ====
 
Содержание индексной карты (.CUE)
REM GENRE "Electroacoustic Improvisation"
REM DATE 2006
REM DISCID 610A8808
REM COMMENT "ExactAudioCopy v1.0b3"
PERFORMER "Ernesto Rodrigues, Guilherme Rodrigues, Oren Marshall, Carlos Santos, Jose Ol..."
TITLE "Kinetics"
FILE "01 - Kinetics 1.wav" WAVE
TRACK 01 AUDIO
TITLE "Kinetics 1"
PERFORMER "Ernesto Rodrigues, Guilherme Rodrigues, Oren Marshall, Carlos Santos, Jose Ol..."
INDEX 01 00:00:00
TRACK 02 AUDIO
TITLE "Kinetics 2"
PERFORMER "Ernesto Rodrigues, Guilherme Rodrigues, Oren Marshall, Carlos Santos, Jose Ol..."
INDEX 00 05:54:00
FILE "02 - Kinetics 2.wav" WAVE
INDEX 01 00:00:00
TRACK 03 AUDIO
TITLE "Kinetics 3"
PERFORMER "Ernesto Rodrigues, Guilherme Rodrigues, Oren Marshall, Carlos Santos, Jose Ol..."
INDEX 00 07:58:00
FILE "03 - Kinetics 3.wav" WAVE
INDEX 01 00:00:00
TRACK 04 AUDIO
TITLE "Kinetics 4"
PERFORMER "Ernesto Rodrigues, Guilherme Rodrigues, Oren Marshall, Carlos Santos, Jose Ol..."
INDEX 00 04:01:58
FILE "04 - Kinetics 4.wav" WAVE
INDEX 01 00:00:00
TRACK 05 AUDIO
TITLE "Kinetics 5"
PERFORMER "Ernesto Rodrigues, Guilherme Rodrigues, Oren Marshall, Carlos Santos, Jose Ol..."
INDEX 00 04:49:72
FILE "05 - Kinetics 5.wav" WAVE
INDEX 01 00:00:00
TRACK 06 AUDIO
TITLE "Kinetics 6"
PERFORMER "Ernesto Rodrigues, Guilherme Rodrigues, Oren Marshall, Carlos Santos, Jose Ol..."
INDEX 00 06:30:00
FILE "06 - Kinetics 6.wav" WAVE
INDEX 01 00:00:00
TRACK 07 AUDIO
TITLE "Kinetics 7"
PERFORMER "Ernesto Rodrigues, Guilherme Rodrigues, Oren Marshall, Carlos Santos, Jose Ol..."
INDEX 00 04:10:00
FILE "07 - Kinetics 7.wav" WAVE
INDEX 01 00:00:00
TRACK 08 AUDIO
TITLE "Kinetics 8"
PERFORMER "Ernesto Rodrigues, Guilherme Rodrigues, Oren Marshall, Carlos Santos, Jose Ol..."
INDEX 00 06:18:72
FILE "08 - Kinetics 8.wav" WAVE
INDEX 01 00:00:00
 
Лог проверки качества
d:\>d:\aucdtect -d/-m0 d:\zzz\*.wav
auCDtect: CD records authenticity detector, version 0.8.2
Copyright (c) 2004 Oleg Berngardt. All rights reserved.
Copyright (c) 2004 Alexander Djourik. All rights reserved.
------------------------------------------------------------
Processing file: [01. Kinetics 1.wav]
------------------------------------------------------------
This track looks like CDDA with probability 100%
------------------------------------------------------------
Processing file: [02. Kinetics 2.wav]
------------------------------------------------------------
This track looks like CDDA with probability 100%
------------------------------------------------------------
Processing file: [03. Kinetics 3.wav]
------------------------------------------------------------
This track looks like CDDA with probability 99%
------------------------------------------------------------
Processing file: [04. Kinetics 4.wav]
------------------------------------------------------------
This track looks like CDDA with probability 100%
------------------------------------------------------------
Processing file: [05. Kinetics 5.wav]
------------------------------------------------------------
This track looks like CDDA with probability 100%
------------------------------------------------------------
Processing file: [06. Kinetics 6.wav]
------------------------------------------------------------
This track looks like CDDA with probability 100%
------------------------------------------------------------
Processing file: [07. Kinetics 7.wav]
------------------------------------------------------------
This track looks like CDDA with probability 99%
------------------------------------------------------------
Processing file: [08. Kinetics 8.wav]
------------------------------------------------------------
This track looks like CDDA with probability 100%
------------------------------------------------------------
Final Conclusion:
------------------------------------------------------------
These tracks looks like CDDA with probability 100%
Доп. информация:
 
Album Info & Review
Recorded on April 6th 2004, at Tcha Tcha Tcha Studios, Lisbon by Diogo Tavares
Mixed and mastered by Carlos Santos and Ernesto Rodrigues
Graphic design by Carlos Santos
Produced by Ernesto Rodrigues
The eight segments forming “Kinetics” – an improvised suite for violin, viola, cello, pocket trumpet, tuba, electronics and percussion – mark an important moment in Creative Sources’ history as this is maybe the record in which the connection between the elements is heightened at the very top level. The music reaches several peaks of remorseless coldness, almost intimidating in its unalloyed brightness, but in those repeated machinations the warmth of an evolved acousticity is diffused all around, transforming splinters and chips in a cohesion of intents, a sharp-witted testimony of these musicians’ uncommon capability to perceive a sound before it materializes. And once it comes, there’s no looking around in confusion: every source is put at the service of a concrete, instantaneous development of a relational instability between often unrecognizable instruments. Pinched nerves, electrostatic halos and resonating suggestions constitute the ideal underwood for some peculiar animal that breathes through tubes and valves while sniffing around to locate its prey; plastic balls bouncing on strings generate multiform refractions, frisky snippets of already shattered “chords” that will never exist. Finally, scorching manipulations of feedback remind us not to trust our unplugged desires, mercilessly stinging our membranes. Every idea is strongly affirmed and counts an awful lot, everything makes sense, perfectly logical in the flow of impulsive creation. An unmissable release. - Massimo Ricci, Touching Extremes
 
Состав
Ernesto Rodrigues: violin, viola
Guilherme Rodrigues: cello, pocket trumpet
Oren Marshall: tuba
Carlos Santos: electronics
Jose Oliveira: percussion
По всем вопросам пишите личное сообщение пользователю M0p94ok.
09:05
187
Нет комментариев. Ваш будет первым!