Вы используете незарегистрированную версию компонента "Вкладки"!

Поиск

(avant-garde, free jazz) [cd] Satoko Fujii Orchestra - Blueprint 2004, FLAC (tracks+.cue), lossless

(avant-garde, free jazz) [cd] Satoko Fujii Orchestra - Blueprint 2004, FLAC (tracks+.cue), lossless
Треклист:
(avant-garde, free jazz) [cd] Satoko Fujii Orchestra - Blueprint 2004, FLAC (tracks+.cue), lossless


Satoko Fujii Orchestra - Blueprint 2004

Жанр: avant-garde, free jazz
Год выпуска: 2004
Издатель (лейбл):Natsat Music/MTCJ-3016
Формат: FLAC (tracks+.cue)
Битрейт аудио: lossless
Продолжительность
Источник: what.cd

tracks

1 Blueprint 9:46
2 Ocha! 10:01
3 Anemometer 9:17
4 Nagoyanian 15:20
5 Kioku 5:02
6 Untitled 13:23


 
.cue
REM GENRE Jazz
REM DATE 2004
REM DISCID 670EA606
REM COMMENT "ExactAudioCopy v1.0b3"
CATALOG 4540957005315
PERFORMER "Satoko Fujii Orchestra"
TITLE "Blueprint"
FILE "01 - Blueprint.wav" WAVE
TRACK 01 AUDIO
TITLE "Blueprint"
PERFORMER "Satoko Fujii Orchestra"
ISRC JPH900404480
INDEX 01 00:00:00
TRACK 02 AUDIO
TITLE "Ocha!"
PERFORMER "Satoko Fujii Orchestra"
ISRC JPH900404490
INDEX 00 09:43:65
FILE "02 - Ocha!.wav" WAVE
INDEX 01 00:00:00
TRACK 03 AUDIO
TITLE "Anemometer"
PERFORMER "Satoko Fujii Orchestra"
ISRC JPH900404500
INDEX 00 09:55:50
FILE "03 - Anemometer.wav" WAVE
INDEX 01 00:00:00
TRACK 04 AUDIO
TITLE "Nagoyanian"
PERFORMER "Satoko Fujii Orchestra"
ISRC JPH900404510
INDEX 00 09:13:58
FILE "04 - Nagoyanian.wav" WAVE
INDEX 01 00:00:00
TRACK 05 AUDIO
TITLE "Kioku"
PERFORMER "Satoko Fujii Orchestra"
ISRC JPH900404520
INDEX 00 15:18:55
FILE "05 - Kioku.wav" WAVE
INDEX 01 00:00:00
TRACK 06 AUDIO
TITLE "Untitled"
PERFORMER "Satoko Fujii Orchestra"
ISRC JPH900404530
INDEX 00 04:59:60
FILE "06 - Untitled.wav" WAVE
INDEX 01 00:00:00
 
.accurip
[CUETools log; Date: 07/02/15 13:46:40; Version: 2.1.4]
[AccurateRip ID: 000ec2ee-004f10b3-670ea606] found.
Track [ CRC | V2 ] Status
01 [b5c61dfc|565cd35c] (1+0/1) Accurately ripped
02 [880780f2|224a4599] (1+0/1) Accurately ripped
03 [d94b8c2a|20bf79bd] (1+0/1) Accurately ripped
04 [9fdf7b3a|619fcd69] (1+0/1) Accurately ripped
05 [6b2f82d1|e0368fd6] (1+0/1) Accurately ripped
06 [862eccac|18cbd42f] (1+0/1) Accurately ripped
Track Peak [ CRC32 ] [W/O NULL]
-- 98.7 [06AF8B33] [7E10ACAE]
01 98.7 [BE771CE1] [E6AC91CF]
02 98.7 [43F393F2] [33BD473F]
03 98.7 [6B483357] [B362B6C2]
04 98.7 [55A2AA40] [D4C0B536]
05 98.7 [52E5EF75] [3C0B0BEC]
06 98.7 [3FEE42C0] [19CA8274]

http://www.discogs.com/Satoko-Fujii-Orchestra-Blueprint/release/2655529
другие релизы
По всем вопросам пишите личное сообщение пользователю M0p94ok.
09:07
422
Нет комментариев. Ваш будет первым!