Вы используете незарегистрированную версию компонента "Вкладки"!

Поиск

(Free Jazz, Emanem 4302) Evan Parker - Strings with Evan Parker 3-CD set - 2001, FLAC (tracks+.cue), lossless

(Free Jazz, Emanem 4302) Evan Parker - Strings with Evan Parker 3-CD set - 2001, FLAC (tracks+.cue), lossless
Треклист:
Evan Parker - Strings with Evan Parker 3-CD set
Жанр: Free Jazz, Emanem 4302
Год выпуска диска: 2001
Производитель диска: England
Аудио кодек: FLAC
Тип рипа: tracks+.cue
Битрейт аудио: lossless
Трэклист:
A1 - The Sitting on the Roof Series 1
A2 - The Sitting on the Roof Series 2
A3 - The Sitting on the Roof Series 3
A4 - Laughing in the House
A5 - Another Fire Drill
A6 - Double Headed Serpent
B1 - The Ghost Series 1: (Pizzicato)
B2 - The Ghost Series 2: (Pizzicato)
B3 - The Ghost Series 3: (Arco)
B4 - Sub-Group MM 1
B5 - Sub-Group MM 2
B6 - Sub-Group RD
B7 - Sub-Group MW
B8 - Sub-Group PC
B9 - Sub-Group PD
B10 - Sub-Group HD
B11 - Sub-Group JR
B12 - Sub-Group JE
B13 - Sub-Group KM
C1 - The Spider’s Web
C2 - Single Headed Serpent
C3 - Flying Spark
Доп. информация:
PHIL DURRANT: violin
KAFFE MATTHEWS: violin & electronics
MARCIO MATTOS: cello
MARK WASTELL: cello
JOHN EDWARDS: double bass
RHODRI DAVIES: harp
PETER CUSACK: bouzouki, guitar & electronics
JOHN RUSSELL: guitar
HUGH DAVIES: strings, springs & electronics
EVAN PARKER : soprano saxophone (on A6, B10-B13 & C1 only)
Emanem 4302
 
EAC log
Exact Audio Copy V0.99 prebeta 4 from 23. January 2008
EAC extraction logfile from 20. January 2010, 18:01
Evan Parker / Strings with Evan Parker - Disc 1
Used drive : HL-DT-STDVD+-RW GSA-T11N Adapter: 0 ID: 0
Read mode : Secure
Utilize accurate stream : Yes
Defeat audio cache : Yes
Make use of C2 pointers : No
Read offset correction : 667
Overread into Lead-In and Lead-Out : No
Fill up missing offset samples with silence : Yes
Delete leading and trailing silent blocks : No
Null samples used in CRC calculations : Yes
Used interface : Native Win32 interface for Win NT & 2000
Gap handling : Appended to previous track
Used output format : User Defined Encoder
Selected bitrate : 128 kBit/s
Quality : High
Add ID3 tag : No
Command line compressor : c:\Program Files\FLAC\flac.exe
Additional command line options : -T "artist=%a" -T "title=%t" -T "album=%g" -T "date=%y" -T "tracknumber=%n" -T "genre=%m" %s
TOC of the extracted CD
Track | Start | Length | Start sector | End sector
---------------------------------------------------------
1 | 0:00.00 | 6:11.55 | 0 | 27879
2 | 6:11.55 | 5:58.62 | 27880 | 54791
3 | 12:10.42 | 3:41.12 | 54792 | 71378
4 | 15:51.54 | 11:39.19 | 71379 | 123822
5 | 27:30.73 | 16:35.00 | 123823 | 198447
6 | 44:05.73 | 28:04.00 | 198448 | 324747
Track 1
Filename G:\music\Evan Parker - Strings with Evan Parker (2001) [FLAC] (Emanem 4302)\1\01 - The Sitting On the Roof Series 1.wav
Pre-gap length 0:00:02.00
Peak level 100.0 %
Track quality 100.0 %
Test CRC 3618CD0C
Copy CRC 3618CD0C
Accurately ripped (confidence 1) [8CD0AF2A]
Copy OK
Track 2
Filename G:\music\Evan Parker - Strings with Evan Parker (2001) [FLAC] (Emanem 4302)\1\02 - The Sitting On the Roof Series 2.wav
Pre-gap length 0:00:04.00
Peak level 100.0 %
Track quality 100.0 %
Test CRC 898DD8B5
Copy CRC 898DD8B5
Accurately ripped (confidence 1) [F6067F70]
Copy OK
Track 3
Filename G:\music\Evan Parker - Strings with Evan Parker (2001) [FLAC] (Emanem 4302)\1\03 - The Sitting On the Roof Series 3.wav
Pre-gap length 0:00:04.00
Peak level 100.0 %
Track quality 99.9 %
Test CRC 072DBDF3
Copy CRC 072DBDF3
Accurately ripped (confidence 1) [6E695F1E]
Copy OK
Track 4
Filename G:\music\Evan Parker - Strings with Evan Parker (2001) [FLAC] (Emanem 4302)\1\04 - Laughing In the House.wav
Pre-gap length 0:00:04.00
Peak level 97.7 %
Track quality 100.0 %
Test CRC FEEB0EF6
Copy CRC FEEB0EF6
Accurately ripped (confidence 1) [9E5C49E0]
Copy OK
Track 5
Filename G:\music\Evan Parker - Strings with Evan Parker (2001) [FLAC] (Emanem 4302)\1\05 - Another Fire Drill.wav
Pre-gap length 0:00:04.00
Peak level 100.0 %
Track quality 100.0 %
Test CRC 9943CDF6
Copy CRC 9943CDF6
Accurately ripped (confidence 1) [88AB6E48]
Copy OK
Track 6
Filename G:\music\Evan Parker - Strings with Evan Parker (2001) [FLAC] (Emanem 4302)\1\06 - Double Headed Serpent.wav
Pre-gap length 0:00:04.00
Peak level 100.0 %
Track quality 100.0 %
Test CRC BC91727C
Copy CRC BC91727C
Accurately ripped (confidence 1) [37E0F689]
Copy OK
All tracks accurately ripped
No errors occurred
End of status report
Exact Audio Copy V0.99 prebeta 4 from 23. January 2008
EAC extraction logfile from 20. January 2010, 18:26
Evan Parker / Strings with Evan Parker - Disc 2
Used drive : HL-DT-STDVD+-RW GSA-T11N Adapter: 0 ID: 0
Read mode : Secure
Utilize accurate stream : Yes
Defeat audio cache : Yes
Make use of C2 pointers : No
Read offset correction : 667
Overread into Lead-In and Lead-Out : No
Fill up missing offset samples with silence : Yes
Delete leading and trailing silent blocks : No
Null samples used in CRC calculations : Yes
Used interface : Native Win32 interface for Win NT & 2000
Gap handling : Appended to previous track
Used output format : User Defined Encoder
Selected bitrate : 128 kBit/s
Quality : High
Add ID3 tag : No
Command line compressor : c:\Program Files\FLAC\flac.exe
Additional command line options : -T "artist=%a" -T "title=%t" -T "album=%g" -T "date=%y" -T "tracknumber=%n" -T "genre=%m" %s
TOC of the extracted CD
Track | Start | Length | Start sector | End sector
---------------------------------------------------------
1 | 0:00.00 | 5:23.03 | 0 | 24227
2 | 5:23.03 | 4:20.39 | 24228 | 43766
3 | 9:43.42 | 6:52.45 | 43767 | 74711
4 | 16:36.12 | 3:00.30 | 74712 | 88241
5 | 19:36.42 | 3:11.69 | 88242 | 102635
6 | 22:48.36 | 3:55.02 | 102636 | 120262
7 | 26:43.38 | 5:10.41 | 120263 | 143553
8 | 31:54.04 | 6:36.29 | 143554 | 173282
9 | 38:30.33 | 2:58.01 | 173283 | 186633
10 | 41:28.34 | 2:55.34 | 186634 | 199792
11 | 44:23.68 | 6:02.64 | 199793 | 227006
12 | 50:26.57 | 3:13.67 | 227007 | 241548
13 | 53:40.49 | 3:47.21 | 241549 | 258594
Track 1
Filename G:\music\Evan Parker - Strings with Evan Parker (2001) [FLAC] (Emanem 4302)\2\01 - The Ghost Series 1- (Pizzicato).wav
Pre-gap length 0:00:02.00
Peak level 100.0 %
Track quality 100.0 %
Test CRC D2708C94
Copy CRC D2708C94
Accurately ripped (confidence 1) [D11502DE]
Copy OK
Track 2
Filename G:\music\Evan Parker - Strings with Evan Parker (2001) [FLAC] (Emanem 4302)\2\02 - The Ghost Series 2- (Pizzicato).wav
Pre-gap length 0:00:08.00
Peak level 100.0 %
Track quality 100.0 %
Test CRC 4077DACA
Copy CRC 4077DACA
Accurately ripped (confidence 1) [D6B6654F]
Copy OK
Track 3
Filename G:\music\Evan Parker - Strings with Evan Parker (2001) [FLAC] (Emanem 4302)\2\03 - The Ghost Series 3- (Arco).wav
Pre-gap length 0:00:08.00
Peak level 99.2 %
Track quality 100.0 %
Test CRC DCB25844
Copy CRC DCB25844
Accurately ripped (confidence 1) [46D808A0]
Copy OK
Track 4
Filename G:\music\Evan Parker - Strings with Evan Parker (2001) [FLAC] (Emanem 4302)\2\04 - Sub-Group MM1.wav
Pre-gap length 0:00:08.00
Peak level 87.8 %
Track quality 100.0 %
Test CRC 08C1115F
Copy CRC 08C1115F
Accurately ripped (confidence 1) [610ED0E9]
Copy OK
Track 5
Filename G:\music\Evan Parker - Strings with Evan Parker (2001) [FLAC] (Emanem 4302)\2\05 - Sub-Group MM2.wav
Pre-gap length 0:00:08.00
Peak level 69.7 %
Track quality 99.9 %
Test CRC 3615DCF8
Copy CRC 3615DCF8
Accurately ripped (confidence 1) [46DA34D6]
Copy OK
Track 6
Filename G:\music\Evan Parker - Strings with Evan Parker (2001) [FLAC] (Emanem 4302)\2\06 - Sub-Group RD.wav
Pre-gap length 0:00:08.00
Peak level 63.9 %
Track quality 100.0 %
Test CRC C7BDBB64
Copy CRC C7BDBB64
Accurately ripped (confidence 1) [0BCFCF20]
Copy OK
Track 7
Filename G:\music\Evan Parker - Strings with Evan Parker (2001) [FLAC] (Emanem 4302)\2\07 - Sub-Group MW.wav
Pre-gap length 0:00:08.00
Peak level 100.0 %
Track quality 100.0 %
Test CRC C207F240
Copy CRC C207F240
Accurately ripped (confidence 1) [F559CFB5]
Copy OK
Track 8
Filename G:\music\Evan Parker - Strings with Evan Parker (2001) [FLAC] (Emanem 4302)\2\08 - Sub-Group PC.wav
Pre-gap length 0:00:08.00
Peak level 43.9 %
Track quality 100.0 %
Test CRC 81104C82
Copy CRC 81104C82
Accurately ripped (confidence 1) [D0E9D598]
Copy OK
Track 9
Filename G:\music\Evan Parker - Strings with Evan Parker (2001) [FLAC] (Emanem 4302)\2\09 - Sub-Group PD.wav
Pre-gap length 0:00:07.74
Peak level 98.8 %
Track quality 100.0 %
Test CRC 776D5183
Copy CRC 776D5183
Accurately ripped (confidence 1) [07CF0BFA]
Copy OK
Track 10
Filename G:\music\Evan Parker - Strings with Evan Parker (2001) [FLAC] (Emanem 4302)\2\10 - Sub-Group HD.wav
Pre-gap length 0:00:08.00
Peak level 88.8 %
Track quality 100.0 %
Test CRC 6D2F9C90
Copy CRC 6D2F9C90
Accurately ripped (confidence 1) [CE325656]
Copy OK
Track 11
Filename G:\music\Evan Parker - Strings with Evan Parker (2001) [FLAC] (Emanem 4302)\2\11 - Sub-Group JR.wav
Pre-gap length 0:00:08.00
Peak level 90.0 %
Track quality 100.0 %
Test CRC 91E4F149
Copy CRC 91E4F149
Accurately ripped (confidence 1) [EC2207D6]
Copy OK
Track 12
Filename G:\music\Evan Parker - Strings with Evan Parker (2001) [FLAC] (Emanem 4302)\2\12 - Sub-Group JE.wav
Pre-gap length 0:00:08.00
Peak level 96.5 %
Track quality 100.0 %
Test CRC 6A0FEC5E
Copy CRC 6A0FEC5E
Accurately ripped (confidence 1) [3D2FE22B]
Copy OK
Track 13
Filename G:\music\Evan Parker - Strings with Evan Parker (2001) [FLAC] (Emanem 4302)\2\13 - Sub-Group KM.wav
Pre-gap length 0:00:08.00
Peak level 100.0 %
Track quality 100.0 %
Test CRC 2DAA14D5
Copy CRC 2DAA14D5
Accurately ripped (confidence 1) [A886F182]
Copy OK
All tracks accurately ripped
No errors occurred
End of status report
Exact Audio Copy V0.99 prebeta 4 from 23. January 2008
EAC extraction logfile from 20. January 2010, 18:51
Evan Parker / Strings With Evan Parker - Disc 3
Used drive : HL-DT-STDVD+-RW GSA-T11N Adapter: 0 ID: 0
Read mode : Secure
Utilize accurate stream : Yes
Defeat audio cache : Yes
Make use of C2 pointers : No
Read offset correction : 667
Overread into Lead-In and Lead-Out : No
Fill up missing offset samples with silence : Yes
Delete leading and trailing silent blocks : No
Null samples used in CRC calculations : Yes
Used interface : Native Win32 interface for Win NT & 2000
Gap handling : Appended to previous track
Used output format : User Defined Encoder
Selected bitrate : 128 kBit/s
Quality : High
Add ID3 tag : No
Command line compressor : c:\Program Files\FLAC\flac.exe
Additional command line options : -T "artist=%a" -T "title=%t" -T "album=%g" -T "date=%y" -T "tracknumber=%n" -T "genre=%m" %s
TOC of the extracted CD
Track | Start | Length | Start sector | End sector
---------------------------------------------------------
1 | 0:00.00 | 29:59.44 | 0 | 134968
2 | 29:59.44 | 28:11.74 | 134969 | 261867
3 | 58:11.43 | 5:38.54 | 261868 | 287271
Track 1
Filename G:\music\Evan Parker - Strings with Evan Parker (2001) [FLAC] (Emanem 4302)\3\01 - The Spider's Web.wav
Pre-gap length 0:00:02.00
Peak level 99.6 %
Track quality 100.0 %
Test CRC E1E40716
Copy CRC E1E40716
Accurately ripped (confidence 1) [DCFE6DAC]
Copy OK
Track 2
Filename G:\music\Evan Parker - Strings with Evan Parker (2001) [FLAC] (Emanem 4302)\3\02 - Single Headed Serpent.wav
Pre-gap length 0:00:08.00
Peak level 100.0 %
Track quality 100.0 %
Test CRC 6B600C54
Copy CRC 6B600C54
Accurately ripped (confidence 1) [528517D4]
Copy OK
Track 3
Filename G:\music\Evan Parker - Strings with Evan Parker (2001) [FLAC] (Emanem 4302)\3\03 - Flying Spark.wav
Pre-gap length 0:00:08.00
Peak level 77.6 %
Track quality 99.9 %
Test CRC A285B1FD
Copy CRC A285B1FD
Accurately ripped (confidence 1) [162D2ABE]
Copy OK
All tracks accurately ripped
No errors occurred
End of status report
Не мой рип
Any questions -> support@pro-jazz.com. По всем вопросам пишите -> support@pro-jazz.com
18:34
168
Нет комментариев. Ваш будет первым!