Вы используете незарегистрированную версию компонента "Вкладки"!

Поиск

(Free Improvisation) Pharoah Sanders & William Henderson: A Prayer Before Dawn - 1993, APE (image+.cue), lossless

(Free Improvisation) Pharoah Sanders & William Henderson: A Prayer Before Dawn - 1993, APE (image+.cue), lossless
Треклист:
Pharoah Sanders & William Henderson: A Prayer Before Dawn
Жанр: Free Improvisation
Год выпуска диска: 1993
Производитель диска: EVIDENCE, USA (ECD 22047-2)
Аудио кодек: APE
Тип рипа: image+.cue
Битрейт аудио: lossless
Продолжительность: 56'07''
Трэклист:
1. The Light At The Edge Of The World ( Piero Piccioni) - 5:08
2. Dedication To James W. Clark (Pharoah Sanders) - 5:15
3. Softly For Shyla (William Henderson) - 5:21
4. The Greatest Love Of All (Linda Creed / Michael Masser) - 8:27
5. Midnight At Yoshi's (Pharoah Sanders) - 5:57
6. Living Space (John Coltrane) - 4:35
7. After The Rain (John Coltrane) - 6:37
8. In Your Own Sweet Way (Dave Brubeck) - 7:09
9. Christmas Song (Mel Tormé / Robert Wells) - 7:24
Recorded September 1987
Доп. информация: Pharoah Sanders - tenor saxophone
William Henderson - piano & Kurzweil synthesizer
John Hicks - piano on #7
Brian McLaughlin - tabla on #5
Lynn Taussig - sarod & chandrasarang on #5
Alvin Queen - drums on #5
 
LOG
Exact Audio Copy V0.99 prebeta 4 from 23. January 2008
Отчёт EAC об извлечении, выполненном 26. января 2010, 8:48
Pharoah Sanders & William Henderson / A Prayer Before Dawn
Дисковод: TSSTcorpCDDVDW SH-S203D Adapter: 3 ID: 0
Режим чтения : Достоверность
Использование точного потока : Да
Отключение кэша аудио : Да
Использование указателей C2 : Нет
Коррекция смещения при чтении : 6
Способность читать области Lead-in и Lead-out : Нет
Заполнение пропущенных сэмплов тишиной : Да
Удаление блоков с тишиной в начале и конце : Нет
При вычислениях CRC использовались нулевые сэмплы : Да
Интерфейс : Установленный внешний ASPI-интерфейс
Выходной формат : Внутренние WAV-операции
Формат сэмплов : 44.100 Гц; 16 бит; стерео
TOC извлечённого CD
Трек | Старт | Длительность | Начальный сектор | Конечный сектор
---------------------------------------------------------------------
1 | 0:00.00 | 5:11.18 | 0 | 23342
2 | 5:11.18 | 5:18.35 | 23343 | 47227
3 | 10:29.53 | 5:22.52 | 47228 | 71429
4 | 15:52.30 | 8:27.25 | 71430 | 109479
5 | 24:19.55 | 5:57.70 | 109480 | 136324
6 | 30:17.50 | 4:35.15 | 136325 | 156964
7 | 34:52.65 | 6:37.23 | 156965 | 186762
8 | 41:30.13 | 7:09.67 | 186763 | 219004
9 | 48:40.05 | 7:24.57 | 219005 | 252361
Характеристики диапазона извлечения и сообщения об ошибках
Выбранный диапазон
Имя файла E:\FOS\MISIC\SANDERS Ph\Pharoah Sanders & William Henderson - A Prayer Before Dawn\Pharoah Sanders & William Henderson - A Prayer Before Dawn.wav
Пиковый уровень 91.6 %
Качество диапазона 99.9 %
CRC копии 6AE37E37
Копирование... OK
Ошибок не произошло
Конец отчёта
Any questions -> support@pro-jazz.com. По всем вопросам пишите -> support@pro-jazz.com
18:34
128
Нет комментариев. Ваш будет первым!