Вы используете незарегистрированную версию компонента "Вкладки"!

Поиск

(Free Jazz) Elton Dean's Ninesense - Happy Daze + Oh! For The Edge - 2009, FLAC (tracks+.cue), lossless

Треклист:
Elton Dean's Ninesense / Happy Daze + Oh! For The Edge
Жанр: Free Jazz
Страна-производитель диска: UK
Год издания: 2009
Издатель (лейбл): Ogun Recording Ltd.
Номер по каталогу: OGCD 032
Аудиокодек: FLAC (*.flac)
Тип рипа: tracks+.cue
Битрейт аудио: lossless
Продолжительность: 75:54
Источник (релизер): whatcd
Наличие сканов в содержимом раздачи: нет
Треклист:
1. Nicrotto 12:00
2. Seven For Lee 8:41
3. Sweet F. A. 11:03
4. Three For All 10:50
5. Dance 9:12
6. Fall In Free 4:37
7. Forsoothe 9:09
8. M. T. 1:54
9. Friday Night Blues 5:03
10. Prayer For Jesus 3:26
 
Лог создания рипа
X Lossless Decoder version 20120609 (141.0)
XLD extraction logfile from 2012-06-12 17:58:18 +0100
Elton Dean's Ninesense / Happy Daze + Oh! For The Edge
Used drive : MATSHITA DVD-R UJ867A (revision KK08)
Ripper mode : XLD Secure Ripper
Disable audio cache : OK for the drive with a cache less than 1375KiB
Make use of C2 pointers : NO
Read offset correction : 102
Max retry count : 20
Gap status : Analyzed, Appended
TOC of the extracted CD
Track | Start | Length | Start sector | End sector
---------------------------------------------------------
1 | 00:00:00 | 12:00:19 | 0 | 54018
2 | 12:00:19 | 08:40:56 | 54019 | 93074
3 | 20:41:00 | 11:03:23 | 93075 | 142822
4 | 31:44:23 | 10:49:53 | 142823 | 191550
5 | 42:34:01 | 09:11:51 | 191551 | 232926
6 | 51:45:52 | 04:37:24 | 232927 | 253725
7 | 56:23:01 | 09:09:22 | 253726 | 294922
8 | 65:32:23 | 01:53:58 | 294923 | 303455
9 | 67:26:06 | 05:03:06 | 303456 | 326186
10 | 72:29:12 | 03:25:51 | 326187 | 341612
AccurateRip Summary (DiscID: 002217bc-010673b8-8711ca0a)
Track 01 : OK (v1, confidence 5/5)
Track 02 : OK (v1, confidence 5/5)
Track 03 : OK (v1, confidence 5/5)
Track 04 : OK (v1, confidence 4/4)
Track 05 : OK (v1, confidence 4/4)
Track 06 : OK (v1, confidence 5/5)
Track 07 : OK (v1, confidence 4/4)
Track 08 : OK (v1, confidence 4/4)
Track 09 : OK (v1, confidence 4/4)
Track 10 : OK (v1, confidence 5/5)
->All tracks accurately ripped.
All Tracks
Album gain : -4.41 dB
Peak : 0.988983
Statistics
Read error : 0
Jitter error (maybe fixed) : 0
Retry sector count : 0
Damaged sector count : 0
Track 01
Filename : /Volumes/SOUNDVISION/Uploads/Elton Dean's Ninesense - Happy Daze + Oh! For The Edge (1977) [FLAC]/01 Nicrotto.flac
Pre-gap length : 00:02:00
Track gain : -4.47 dB
Peak : 0.988556
CRC32 hash (test run) : 2AE95A1A
CRC32 hash : 2AE95A1A
CRC32 hash (skip zero) : 152BDCF6
AccurateRip v1 signature : 22231119
AccurateRip v2 signature : DFDF2087
->Accurately ripped (v1, confidence 5/5)
Statistics
Read error : 0
Jitter error (maybe fixed) : 0
Retry sector count : 0
Damaged sector count : 0
Track 02
Filename : /Volumes/SOUNDVISION/Uploads/Elton Dean's Ninesense - Happy Daze + Oh! For The Edge (1977) [FLAC]/02 Seven For Lee.flac
Track gain : -5.56 dB
Peak : 0.988525
CRC32 hash (test run) : D99B4916
CRC32 hash : D99B4916
CRC32 hash (skip zero) : EE5AA001
AccurateRip v1 signature : 588B2225
AccurateRip v2 signature : 2AE74604
->Accurately ripped (v1, confidence 5/5)
Statistics
Read error : 0
Jitter error (maybe fixed) : 0
Retry sector count : 0
Damaged sector count : 0
Track 03
Filename : /Volumes/SOUNDVISION/Uploads/Elton Dean's Ninesense - Happy Daze + Oh! For The Edge (1977) [FLAC]/03 Sweet F.A..flac
Pre-gap length : 00:03:00
Track gain : -3.16 dB
Peak : 0.971375
CRC32 hash (test run) : 926854E0
CRC32 hash : 926854E0
CRC32 hash (skip zero) : F5BFC39C
AccurateRip v1 signature : 24E84A26
AccurateRip v2 signature : C6F0A45E
->Accurately ripped (v1, confidence 5/5)
Statistics
Read error : 0
Jitter error (maybe fixed) : 0
Retry sector count : 0
Damaged sector count : 0
Track 04
Filename : /Volumes/SOUNDVISION/Uploads/Elton Dean's Ninesense - Happy Daze + Oh! For The Edge (1977) [FLAC]/04 Three For All.flac
Track gain : -4.72 dB
Peak : 0.988525
CRC32 hash (test run) : FB0D9892
CRC32 hash : FB0D9892
CRC32 hash (skip zero) : CD5EAEA9
AccurateRip v1 signature : 4FDA32DD
AccurateRip v2 signature : 0C45EFBB
->Accurately ripped (v1, confidence 4/4)
Statistics
Read error : 0
Jitter error (maybe fixed) : 0
Retry sector count : 0
Damaged sector count : 0
Track 05
Filename : /Volumes/SOUNDVISION/Uploads/Elton Dean's Ninesense - Happy Daze + Oh! For The Edge (1977) [FLAC]/05 Dance.flac
Pre-gap length : 00:04:00
Track gain : -3.45 dB
Peak : 0.988953
CRC32 hash (test run) : 6A5112B0
CRC32 hash : 6A5112B0
CRC32 hash (skip zero) : 2466E0B7
AccurateRip v1 signature : 0EDBE13E
AccurateRip v2 signature : 6BAD6915
->Accurately ripped (v1, confidence 4/4)
Statistics
Read error : 0
Jitter error (maybe fixed) : 0
Retry sector count : 0
Damaged sector count : 0
Track 06
Filename : /Volumes/SOUNDVISION/Uploads/Elton Dean's Ninesense - Happy Daze + Oh! For The Edge (1977) [FLAC]/06 Fall In Free.flac
Pre-gap length : 00:03:43
Track gain : -4.75 dB
Peak : 0.988983
CRC32 hash (test run) : E783D5FB
CRC32 hash : E783D5FB
CRC32 hash (skip zero) : 487998C3
AccurateRip v1 signature : F9BD0D14
AccurateRip v2 signature : 57675189
->Accurately ripped (v1, confidence 5/5)
Statistics
Read error : 0
Jitter error (maybe fixed) : 0
Retry sector count : 0
Damaged sector count : 0
Track 07
Filename : /Volumes/SOUNDVISION/Uploads/Elton Dean's Ninesense - Happy Daze + Oh! For The Edge (1977) [FLAC]/07 Forsoothe.flac
Pre-gap length : 00:04:00
Track gain : -3.02 dB
Peak : 0.979675
CRC32 hash (test run) : DBBA2D38
CRC32 hash : DBBA2D38
CRC32 hash (skip zero) : FEEFEFDD
AccurateRip v1 signature : A82F4E7F
AccurateRip v2 signature : FD6AA0AB
->Accurately ripped (v1, confidence 4/4)
Statistics
Read error : 0
Jitter error (maybe fixed) : 0
Retry sector count : 0
Damaged sector count : 0
Track 08
Filename : /Volumes/SOUNDVISION/Uploads/Elton Dean's Ninesense - Happy Daze + Oh! For The Edge (1977) [FLAC]/08 M.T..flac
Pre-gap length : 00:04:00
Track gain : -4.58 dB
Peak : 0.988922
CRC32 hash (test run) : 1ED0F911
CRC32 hash : 1ED0F911
CRC32 hash (skip zero) : 8E0305BC
AccurateRip v1 signature : B9EDC870
AccurateRip v2 signature : 206375C1
->Accurately ripped (v1, confidence 4/4)
Statistics
Read error : 0
Jitter error (maybe fixed) : 0
Retry sector count : 0
Damaged sector count : 0
Track 09
Filename : /Volumes/SOUNDVISION/Uploads/Elton Dean's Ninesense - Happy Daze + Oh! For The Edge (1977) [FLAC]/09 Friday Night Blues.flac
Pre-gap length : 00:01:00
Track gain : -5.22 dB
Peak : 0.988953
CRC32 hash (test run) : ECBC29B1
CRC32 hash : ECBC29B1
CRC32 hash (skip zero) : AE2EBAA3
AccurateRip v1 signature : 414B4BF5
AccurateRip v2 signature : 7B2A94B4
->Accurately ripped (v1, confidence 4/4)
Statistics
Read error : 0
Jitter error (maybe fixed) : 0
Retry sector count : 0
Damaged sector count : 0
Track 10
Filename : /Volumes/SOUNDVISION/Uploads/Elton Dean's Ninesense - Happy Daze + Oh! For The Edge (1977) [FLAC]/10 Prayer For Jesus.flac
Pre-gap length : 00:03:52
Track gain : 0.59 dB
Peak : 0.632599
CRC32 hash (test run) : 6DD95EDE
CRC32 hash : 6DD95EDE
CRC32 hash (skip zero) : F5D0F95A
AccurateRip v1 signature : 8A168F70
AccurateRip v2 signature : 2908E1AD
->Accurately ripped (v1, confidence 5/5)
Statistics
Read error : 0
Jitter error (maybe fixed) : 0
Retry sector count : 0
Damaged sector count : 0
No errors occurred
End of status report
 
Содержание индексной карты (.CUE)
TITLE "Happy Daze + Oh! For The Edge"
PERFORMER "Elton Dean's Ninesense"
REM GENRE "Jazz"
REM DATE "1977"
REM DISCID 8711CA0A
REM REPLAYGAIN_ALBUM_GAIN -4.41 dB
REM REPLAYGAIN_ALBUM_PEAK 0.988983
FILE "01 Nicrotto.flac" WAVE
TRACK 01 AUDIO
TITLE "Nicrotto"
ISRC GBCZP0903201
REM REPLAYGAIN_TRACK_GAIN -4.47 dB
REM REPLAYGAIN_TRACK_PEAK 0.988556
INDEX 01 00:00:00
FILE "02 Seven For Lee.flac" WAVE
TRACK 02 AUDIO
TITLE "Seven For Lee"
ISRC GBCZP0903202
REM REPLAYGAIN_TRACK_GAIN -5.56 dB
REM REPLAYGAIN_TRACK_PEAK 0.988525
INDEX 01 00:00:00
TRACK 03 AUDIO
TITLE "Sweet F.A."
ISRC GBCZP0903203
REM REPLAYGAIN_TRACK_GAIN -3.16 dB
REM REPLAYGAIN_TRACK_PEAK 0.971375
INDEX 00 08:37:56
FILE "03 Sweet F.A..flac" WAVE
INDEX 01 00:00:00
FILE "04 Three For All.flac" WAVE
TRACK 04 AUDIO
TITLE "Three For All"
ISRC GBCZP0903204
REM REPLAYGAIN_TRACK_GAIN -4.72 dB
REM REPLAYGAIN_TRACK_PEAK 0.988525
INDEX 01 00:00:00
TRACK 05 AUDIO
TITLE "Dance"
ISRC GBCZP0903205
REM REPLAYGAIN_TRACK_GAIN -3.45 dB
REM REPLAYGAIN_TRACK_PEAK 0.988953
INDEX 00 10:45:53
FILE "05 Dance.flac" WAVE
INDEX 01 00:00:00
TRACK 06 AUDIO
TITLE "Fall In Free"
ISRC GBCZP0903206
REM REPLAYGAIN_TRACK_GAIN -4.75 dB
REM REPLAYGAIN_TRACK_PEAK 0.988983
INDEX 00 09:08:08
FILE "06 Fall In Free.flac" WAVE
INDEX 01 00:00:00
TRACK 07 AUDIO
TITLE "Forsoothe"
ISRC GBCZP0903207
REM REPLAYGAIN_TRACK_GAIN -3.02 dB
REM REPLAYGAIN_TRACK_PEAK 0.979675
INDEX 00 04:33:24
FILE "07 Forsoothe.flac" WAVE
INDEX 01 00:00:00
TRACK 08 AUDIO
TITLE "M.T."
ISRC GBCZP0903208
REM REPLAYGAIN_TRACK_GAIN -4.58 dB
REM REPLAYGAIN_TRACK_PEAK 0.988922
INDEX 00 09:05:22
FILE "08 M.T..flac" WAVE
INDEX 01 00:00:00
TRACK 09 AUDIO
TITLE "Friday Night Blues"
ISRC GBCZP0903209
REM REPLAYGAIN_TRACK_GAIN -5.22 dB
REM REPLAYGAIN_TRACK_PEAK 0.988953
INDEX 00 01:52:58
FILE "09 Friday Night Blues.flac" WAVE
INDEX 01 00:00:00
TRACK 10 AUDIO
TITLE "Prayer For Jesus"
ISRC GBCZP0903210
REM REPLAYGAIN_TRACK_GAIN 0.59 dB
REM REPLAYGAIN_TRACK_PEAK 0.632599
INDEX 00 04:59:29
FILE "10 Prayer For Jesus.flac" WAVE
INDEX 01 00:00:00
Доп. информация: Happy Daze recorded at Redan Recorders, London W2 on 26th July 1977. Previously released on LP as OG 910 in 1977. Oh! For The Edge Recorded live at Grass Roots Jazz Club at the 100 Club, 100 Oxford Street, London W.1. on Monday, March 22, 1976 by Keith Beal. Album mixed and edited in Hastings by Keith Beal and Elton Dean. Previously released on LP as OG 900 in 1976.
 
Состав
Elton Dean-alto sax, saxello
Alan Skidmore-tenor sax
Harry Beckett-trumpet, flugelhorn
Mark Charig-trumpet, tenor horn
Nick Evans-trombone
Radu Malfatti-trombone
Keith Tippett-piano
Harry Miller-bass
Louis Moholo-drums
Any questions -> support@pro-jazz.com. По всем вопросам пишите -> support@pro-jazz.com
01:44
151
Нет комментариев. Ваш будет первым!