Вы используете незарегистрированную версию компонента "Вкладки"!

Поиск

(Free Improvisation) Gush (Mats Gustafsson, Sten Sandell, Raymond Strid) - From Things To Sounds... - 1991, FLAC (image+.cue), lossless

(Free Improvisation) Gush (Mats Gustafsson, Sten Sandell, Raymond Strid) - From Things To Sounds... - 1991, FLAC (image+.cue), lossless
Треклист:
Gush / From Things To Sounds...
Жанр: Free Improvisation
Страна-производитель диска: Sweden
Год издания: 1991
Издатель (лейбл): Dragon Records
Номер по каталогу: DRCD 204
Аудиокодек: FLAC (*.flac)
Тип рипа: image+.cue
Битрейт аудио: lossless
Продолжительность: 66:38
Источник (релизер): cd
Наличие сканов в содержимом раздачи: нет
Треклист:
Gush Of Things (21:25)
1 I 2:28
2 II 3:54
3 III 4:28
4 IV 10:32
Gush Of Sounds (25:35)
5 I 5:18
6 II 9:52
7 III 4:30
8 IV 5:53
Gush Of Gush (18:20)
9 I 1:43
10 II 2:14
11 III 11:26
12 IV 2:56
 
Лог создания рипа
Exact Audio Copy V1.0 beta 2 from 29. April 2011
EAC extraction logfile from 7. June 2012, 14:32
Gush / From Things To Sounds...
Used drive : Optiarc DVD RW AD-7170A Adapter: 0 ID: 0
Read mode : Secure
Utilize accurate stream : Yes
Defeat audio cache : Yes
Make use of C2 pointers : No
Read offset correction : 48
Overread into Lead-In and Lead-Out : No
Fill up missing offset samples with silence : Yes
Delete leading and trailing silent blocks : No
Null samples used in CRC calculations : Yes
Used interface : Native Win32 interface for Win NT & 2000
Used output format : User Defined Encoder
Selected bitrate : 320 kBit/s
Quality : High
Add ID3 tag : No
Command line compressor : C:\Program Files\Exact Audio Copy\Flac\flac.exe
Additional command line options : -V -8 -T "Date=%year%" -T "Genre=%genre%" %source%
TOC of the extracted CD
Track | Start | Length | Start sector | End sector
---------------------------------------------------------
1 | 0:00.00 | 2:29.30 | 0 | 11204
2 | 2:29.30 | 3:56.13 | 11205 | 28917
3 | 6:25.43 | 4:32.62 | 28918 | 49379
4 | 10:58.30 | 11:00.55 | 49380 | 98934
5 | 21:59.10 | 5:19.35 | 98935 | 122894
6 | 27:18.45 | 9:55.48 | 122895 | 167567
7 | 37:14.18 | 4:31.12 | 167568 | 187904
8 | 41:45.30 | 6:22.10 | 187905 | 216564
9 | 48:07.40 | 1:43.30 | 216565 | 224319
10 | 49:50.70 | 2:18.50 | 224320 | 234719
11 | 52:09.45 | 11:32.18 | 234720 | 286637
12 | 63:41.63 | 2:56.45 | 286638 | 299882
Range status and errors
Selected range
Filename K:\ЕАС\Gush - From Things To Sounds....wav
Peak level 99.8 %
Extraction speed 2.2 X
Range quality 100.0 %
Test CRC 8B70BD57
Copy CRC 8B70BD57
Copy OK
No errors occurred
AccurateRip summary
Track 1 accurately ripped (confidence 2) [2CEFB788] (AR v1)
Track 2 accurately ripped (confidence 2) [0D77DFCF] (AR v1)
Track 3 accurately ripped (confidence 2) [EDDFC435] (AR v1)
Track 4 accurately ripped (confidence 2) [39379582] (AR v1)
Track 5 accurately ripped (confidence 2) [9E758132] (AR v1)
Track 6 accurately ripped (confidence 2) [2158BA29] (AR v1)
Track 7 accurately ripped (confidence 2) [B35EE6CC] (AR v1)
Track 8 accurately ripped (confidence 2) [BE738FC8] (AR v1)
Track 9 accurately ripped (confidence 2) [D7C2A9A3] (AR v1)
Track 10 accurately ripped (confidence 2) [C7C95CD8] (AR v1)
Track 11 accurately ripped (confidence 2) [D1B1EF53] (AR v1)
Track 12 accurately ripped (confidence 2) [6A6F6552] (AR v1)
All tracks accurately ripped
End of status report
==== Log checksum 711817667E709C1774A8ACC5EC09DEF1B8CF63844ED30729626EE954E12830E0 ====
 
Содержание индексной карты (.CUE)
REM GENRE Jazz
REM DATE 1991
REM DISCID 9D0F9E0C
REM COMMENT "ExactAudioCopy v1.0b2"
PERFORMER "Gush"
TITLE "From Things To Sounds..."
FILE "Gush - From Things To Sounds....flac" WAVE
TRACK 01 AUDIO
TITLE "Gush Of Things - I"
PERFORMER "Gush"
INDEX 01 00:00:00
TRACK 02 AUDIO
TITLE "Gush Of Things - II"
PERFORMER "Gush"
INDEX 00 02:27:65
INDEX 01 02:29:30
TRACK 03 AUDIO
TITLE "Gush Of Things - III"
PERFORMER "Gush"
INDEX 00 06:23:35
INDEX 01 06:25:43
TRACK 04 AUDIO
TITLE "Gush Of Things - IV"
PERFORMER "Gush"
INDEX 00 10:53:15
INDEX 01 10:58:30
TRACK 05 AUDIO
TITLE "Gush Of Sounds - I"
PERFORMER "Gush"
INDEX 00 21:30:18
INDEX 01 21:59:10
TRACK 06 AUDIO
TITLE "Gush Of Sounds - II"
PERFORMER "Gush"
INDEX 00 27:16:68
INDEX 01 27:18:45
TRACK 07 AUDIO
TITLE "Gush Of Sounds - III"
PERFORMER "Gush"
INDEX 00 37:10:45
INDEX 01 37:14:18
TRACK 08 AUDIO
TITLE "Gush Of Sounds - IV"
PERFORMER "Gush"
INDEX 00 41:43:68
INDEX 01 41:45:30
TRACK 09 AUDIO
TITLE "Gush Of Gush - I"
PERFORMER "Gush"
INDEX 00 47:38:30
INDEX 01 48:07:40
TRACK 10 AUDIO
TITLE "Gush Of Gush - II"
PERFORMER "Gush"
INDEX 00 49:50:13
INDEX 01 49:50:70
TRACK 11 AUDIO
TITLE "Gush Of Gush - III"
PERFORMER "Gush"
INDEX 00 52:05:18
INDEX 01 52:09:45
TRACK 12 AUDIO
TITLE "Gush Of Gush - IV"
PERFORMER "Gush"
INDEX 00 63:35:73
INDEX 01 63:41:63
Доп. информация: Recorded at Fylkingen, Stockholm, May and October 1990
 
Состав
Drums, Guitar – Raymond Strid
Piano, Harmonium, Sampler, Keyboards, Percussion, Voice – Sten Sandell
Sopranino Saxophone, Soprano Saxophone, Tenor Saxophone, Flute [& Flutophone] – Mats Gustafsson
Any questions -> support@pro-jazz.com. По всем вопросам пишите -> support@pro-jazz.com
01:44
138
Нет комментариев. Ваш будет первым!