Вы используете незарегистрированную версию компонента "Вкладки"!

Поиск

(Modern Creative/Contemporary Jazz) Peter Epstein Quartet - The Invisible - 1999, FLAC (tracks+.cue), lossless

Треклист:
Peter Epstein Quartet / The Invisible
Жанр: Modern Creative/Contemporary Jazz
Страна-производитель диска: USA
Год издания: 1999
Издатель (лейбл): MA Records
Номер по каталогу: 50
Страна: USA
Аудиокодек: FLAC (*.flac)
Тип рипа: tracks+.cue
Битрейт аудио: lossless
Продолжительность: 59:33
Источник (релизер): funky_cat
Наличие сканов в содержимом раздачи: нет
Треклист:
1 Good Fever 09:04
2 The Leaf's Impression 12:06
3 The Invisible 03:06
4 Centrifugal Force 11:20
5 Shut Up, Peaceful 11:00
6 Creamy Center 06:02
7 Ornette's Advice 06:52
 
Лог создания рипа
X Lossless Decoder version 20120609 (141.0)
XLD extraction logfile from 2012-06-14 14:30:24 +0400
Peter Epstein Quartet / Invisible
Used drive : HL-DT-ST DVDRW GS23N (revision SB00)
Ripper mode : CDParanoia III 10.2
Disable audio cache : OK for the drive with a cache less than 2750KiB
Make use of C2 pointers : NO
Read offset correction : 667
Max retry count : 10
Gap status : Analyzed, Appended
TOC of the extracted CD
Track | Start | Length | Start sector | End sector
---------------------------------------------------------
1 | 00:00:00 | 09:04:29 | 0 | 40828
2 | 09:04:29 | 12:06:55 | 40829 | 95333
3 | 21:11:09 | 03:06:15 | 95334 | 109298
4 | 24:17:24 | 11:20:50 | 109299 | 160348
5 | 35:37:74 | 11:00:62 | 160349 | 209910
6 | 46:38:61 | 06:02:48 | 209911 | 237108
7 | 52:41:34 | 06:52:29 | 237109 | 268037
AccurateRip Summary
Disc not found in AccurateRip DB.
All Tracks
Album gain : 0.89 dB
Peak : 0.999969
Statistics
Read error : 0
Skipped (treated as error) : 0
Edge jitter error (maybe fixed) : 2
Atom jitter error (maybe fixed) : 4
Drift error (maybe fixed) : 0
Dropped bytes error (maybe fixed) : 0
Duplicated bytes error (maybe fixed) : 0
Track 01
Filename : /Users/olegbelov/Downloads/Peter Epstein - The Invisible (1999)/01 - Good Fever.flac
Pre-gap length : 00:02:00
Track gain : 1.39 dB
Peak : 0.999969
CRC32 hash (test run) : 956FA4C1
CRC32 hash : 956FA4C1
CRC32 hash (skip zero) : B1AEE6F1
AccurateRip v1 signature : 38A181FC
AccurateRip v2 signature : 93A78ADF
->Track not present in AccurateRip database.
Statistics
Read error : 0
Skipped (treated as error) : 0
Edge jitter error (maybe fixed) : 0
Atom jitter error (maybe fixed) : 0
Drift error (maybe fixed) : 0
Dropped bytes error (maybe fixed) : 0
Duplicated bytes error (maybe fixed) : 0
Inconsistency in error sectors : 0
Track 02
Filename : /Users/olegbelov/Downloads/Peter Epstein - The Invisible (1999)/02 - The Leaf's Impression.flac
Track gain : 2.14 dB
Peak : 0.996094
CRC32 hash (test run) : 4126B59E
CRC32 hash : 4126B59E
CRC32 hash (skip zero) : BB6F51E0
AccurateRip v1 signature : 6932EBF7
AccurateRip v2 signature : 6B448981
->Track not present in AccurateRip database.
Statistics
Read error : 0
Skipped (treated as error) : 0
Edge jitter error (maybe fixed) : 0
Atom jitter error (maybe fixed) : 0
Drift error (maybe fixed) : 0
Dropped bytes error (maybe fixed) : 0
Duplicated bytes error (maybe fixed) : 0
Inconsistency in error sectors : 0
Track 03
Filename : /Users/olegbelov/Downloads/Peter Epstein - The Invisible (1999)/03 - The Invisible.flac
Track gain : 13.46 dB
Peak : 0.217346
CRC32 hash (test run) : E32261CB
CRC32 hash : E32261CB
CRC32 hash (skip zero) : A40F74FF
AccurateRip v1 signature : AF48C7AB
AccurateRip v2 signature : 25CD778A
->Track not present in AccurateRip database.
Statistics
Read error : 0
Skipped (treated as error) : 0
Edge jitter error (maybe fixed) : 0
Atom jitter error (maybe fixed) : 0
Drift error (maybe fixed) : 0
Dropped bytes error (maybe fixed) : 0
Duplicated bytes error (maybe fixed) : 0
Inconsistency in error sectors : 0
Track 04
Filename : /Users/olegbelov/Downloads/Peter Epstein - The Invisible (1999)/04 - Centrifugal Force.flac
Track gain : 0.40 dB
Peak : 0.996063
CRC32 hash (test run) : A1B62B1A
CRC32 hash : A1B62B1A
CRC32 hash (skip zero) : F3D7FD1B
AccurateRip v1 signature : C3191CC1
AccurateRip v2 signature : E76314A9
->Track not present in AccurateRip database.
Statistics
Read error : 0
Skipped (treated as error) : 0
Edge jitter error (maybe fixed) : 0
Atom jitter error (maybe fixed) : 0
Drift error (maybe fixed) : 0
Dropped bytes error (maybe fixed) : 0
Duplicated bytes error (maybe fixed) : 0
Inconsistency in error sectors : 0
Track 05
Filename : /Users/olegbelov/Downloads/Peter Epstein - The Invisible (1999)/05 - Shut Up, Peaceful.flac
Track gain : 1.21 dB
Peak : 0.996063
CRC32 hash (test run) : 18C15967
CRC32 hash : 18C15967
CRC32 hash (skip zero) : 28683CBD
AccurateRip v1 signature : 210EA9BE
AccurateRip v2 signature : A362CE95
->Track not present in AccurateRip database.
Statistics
Read error : 0
Skipped (treated as error) : 0
Edge jitter error (maybe fixed) : 0
Atom jitter error (maybe fixed) : 0
Drift error (maybe fixed) : 0
Dropped bytes error (maybe fixed) : 0
Duplicated bytes error (maybe fixed) : 0
Inconsistency in error sectors : 0
Track 06
Filename : /Users/olegbelov/Downloads/Peter Epstein - The Invisible (1999)/06 - Creamy Center.flac
Track gain : -0.52 dB
Peak : 0.996094
CRC32 hash (test run) : 18DEBE57
CRC32 hash : 18DEBE57
CRC32 hash (skip zero) : 1AD7C42E
AccurateRip v1 signature : AEAE4E0A
AccurateRip v2 signature : B81E4BFF
->Track not present in AccurateRip database.
Statistics
Read error : 0
Skipped (treated as error) : 0
Edge jitter error (maybe fixed) : 1
Atom jitter error (maybe fixed) : 1
Drift error (maybe fixed) : 0
Dropped bytes error (maybe fixed) : 0
Duplicated bytes error (maybe fixed) : 0
Inconsistency in error sectors : 0
Track 07
Filename : /Users/olegbelov/Downloads/Peter Epstein - The Invisible (1999)/07 - Ornette's Advice.flac
Track gain : -0.01 dB
Peak : 0.907959
CRC32 hash (test run) : 2CADA0F2
CRC32 hash : 2245B457
->Rip may not be accurate.
CRC32 hash (skip zero) : DBD936DA
AccurateRip v1 signature : DB2BDA3A
AccurateRip v2 signature : 66805479
->Track not present in AccurateRip database.
Statistics
Read error : 0
Skipped (treated as error) : 0
Edge jitter error (maybe fixed) : 1
Atom jitter error (maybe fixed) : 3
Drift error (maybe fixed) : 0
Dropped bytes error (maybe fixed) : 0
Duplicated bytes error (maybe fixed) : 0
Inconsistency in error sectors : 0
Some inconsistencies found
End of status report
 
Содержание индексной карты (.CUE)
TITLE "Invisible"
PERFORMER "Peter Epstein Quartet"
REM GENRE "Jazz"
REM DATE "1999"
REM DISCNUMBER 1
REM TOTALDISCS 1
REM DISCID 570DF507
REM REPLAYGAIN_ALBUM_GAIN 0.89 dB
REM REPLAYGAIN_ALBUM_PEAK 0.999969
FILE "01 - Good Fever.flac" WAVE
TRACK 01 AUDIO
TITLE "Good Fever"
REM REPLAYGAIN_TRACK_GAIN 1.39 dB
REM REPLAYGAIN_TRACK_PEAK 0.999969
INDEX 01 00:00:00
FILE "02 - The Leaf's Impression.flac" WAVE
TRACK 02 AUDIO
TITLE "The Leaf's Impression"
REM REPLAYGAIN_TRACK_GAIN 2.14 dB
REM REPLAYGAIN_TRACK_PEAK 0.996094
INDEX 01 00:00:00
FILE "03 - The Invisible.flac" WAVE
TRACK 03 AUDIO
TITLE "The Invisible"
REM REPLAYGAIN_TRACK_GAIN 13.46 dB
REM REPLAYGAIN_TRACK_PEAK 0.217346
INDEX 01 00:00:00
FILE "04 - Centrifugal Force.flac" WAVE
TRACK 04 AUDIO
TITLE "Centrifugal Force"
REM REPLAYGAIN_TRACK_GAIN 0.40 dB
REM REPLAYGAIN_TRACK_PEAK 0.996063
INDEX 01 00:00:00
FILE "05 - Shut Up, Peaceful.flac" WAVE
TRACK 05 AUDIO
TITLE "Shut Up, Peaceful"
REM REPLAYGAIN_TRACK_GAIN 1.21 dB
REM REPLAYGAIN_TRACK_PEAK 0.996063
INDEX 01 00:00:00
FILE "06 - Creamy Center.flac" WAVE
TRACK 06 AUDIO
TITLE "Creamy Center"
REM REPLAYGAIN_TRACK_GAIN -0.52 dB
REM REPLAYGAIN_TRACK_PEAK 0.996094
INDEX 01 00:00:00
FILE "07 - Ornette's Advice.flac" WAVE
TRACK 07 AUDIO
TITLE "Ornette's Advice"
REM REPLAYGAIN_TRACK_GAIN -0.01 dB
REM REPLAYGAIN_TRACK_PEAK 0.907959
INDEX 01 00:00:00
 
Состав
Peter Epstein - soprano, alto & tenor saxophones
Jamie Saft - accordion, piano, Farfisa organ, effects
Jim Black - drums, percussion
Chris Dahlgren - acoustic bass
Any questions -> support@pro-jazz.com. По всем вопросам пишите -> support@pro-jazz.com
01:45
135
Нет комментариев. Ваш будет первым!