Вы используете незарегистрированную версию компонента "Вкладки"!

Поиск

(Free Jazz) Edward Vesala - Rodina - 1977, FLAC (tracks+.cue) lossless

Треклист:
Edward Vesala / Rodina
Жанр: Free Jazz
Страна-производитель диска: Finland
Год издания диска: 2000
Издатель (лейбл): Love Records
Номер по каталогу: LRCD 189
Страна: Finland
Аудио кодек: FLAC (*.flac)
Тип рипа: tracks+.cue
Битрейт аудио: lossless
Продолжительность: 68:52
Источник (релизер): what.cd
Наличие сканов в содержимом раздачи: нет
Треклист:
1 Lapsellein 4:58
2 Komba 7:23
3 Rodina 7:48
4 Tahden Lento 3:05
5 Satujen Satu 12:02
6 Tahdon Laulaa 6:51
7 Satujen Satu 12:13 (CD bonus track)
8 Dady And Komba 7:04 (CD bonus track)
9 Tahdon Laulaa 6:48 (CD bonus track)
 
Лог создания рипа
Exact Audio Copy V0.99 prebeta 5 from 4. May 2009
EAC extraction logfile from 29. September 2010, 19:20
Edward Vesala / Rodina
Used drive : TSSTcorpCDDVDW SH-S203D Adapter: 3 ID: 0
Read mode : Secure
Utilize accurate stream : Yes
Defeat audio cache : Yes
Make use of C2 pointers : No
Read offset correction : 6
Overread into Lead-In and Lead-Out : No
Fill up missing offset samples with silence : Yes
Delete leading and trailing silent blocks : No
Null samples used in CRC calculations : Yes
Used interface : Native Win32 interface for Win NT & 2000
Gap handling : Appended to previous track
Used output format : User Defined Encoder
Selected bitrate : 768 kBit/s
Quality : High
Add ID3 tag : No
Command line compressor : C:\Program Files (x86)\Exact Audio Copy\FLAC\FLAC.EXE
Additional command line options : -V -8 -T "artist=%a" -T "title=%t" -T "album=%g" -T "date=%y" -T "tracknumber=%n" -T "genre=%m" %s
TOC of the extracted CD
Track | Start | Length | Start sector | End sector
---------------------------------------------------------
1 | 0:00.00 | 5:03.42 | 0 | 22766
2 | 5:03.42 | 7:28.55 | 22767 | 56421
3 | 12:32.22 | 7:54.32 | 56422 | 92003
4 | 20:26.54 | 3:10.73 | 92004 | 106326
5 | 23:37.52 | 12:10.10 | 106327 | 161086
6 | 35:47.62 | 6:59.55 | 161087 | 192566
7 | 42:47.42 | 12:13.18 | 192567 | 247559
8 | 55:00.60 | 7:03.62 | 247560 | 279346
9 | 62:04.47 | 6:47.53 | 279347 | 309924
Track 1
Filename C:\EAC\Edward Vesala - 1976 - Rodina [FLAC]\01 - Lapsellein.wav
Pre-gap length 0:00:02.00
Peak level 93.6 %
Track quality 100.0 %
Test CRC 21A311FC
Copy CRC 21A311FC
Track not present in AccurateRip database
Copy OK
Track 2
Filename C:\EAC\Edward Vesala - 1976 - Rodina [FLAC]\02 - Komba.wav
Pre-gap length 0:00:03.37
Peak level 95.7 %
Track quality 100.0 %
Test CRC AC569E6D
Copy CRC AC569E6D
Track not present in AccurateRip database
Copy OK
Track 3
Filename C:\EAC\Edward Vesala - 1976 - Rodina [FLAC]\03 - Rodina.wav
Pre-gap length 0:00:04.57
Peak level 95.7 %
Track quality 100.0 %
Test CRC C366B436
Copy CRC C366B436
Track not present in AccurateRip database
Copy OK
Track 4
Filename C:\EAC\Edward Vesala - 1976 - Rodina [FLAC]\04 - Tдhden lento.wav
Pre-gap length 0:00:04.42
Peak level 95.7 %
Track quality 100.0 %
Test CRC 146F9D54
Copy CRC 146F9D54
Track not present in AccurateRip database
Copy OK
Track 5
Filename C:\EAC\Edward Vesala - 1976 - Rodina [FLAC]\05 - Satujen satu.wav
Pre-gap length 0:00:04.15
Peak level 95.7 %
Track quality 100.0 %
Test CRC 62D8C4B9
Copy CRC 62D8C4B9
Track not present in AccurateRip database
Copy OK
Track 6
Filename C:\EAC\Edward Vesala - 1976 - Rodina [FLAC]\06 - Tahdon laulaa.wav
Pre-gap length 0:00:04.02
Peak level 77.8 %
Track quality 99.9 %
Test CRC D91F5DA5
Copy CRC D91F5DA5
Track not present in AccurateRip database
Copy OK
Track 7
Filename C:\EAC\Edward Vesala - 1976 - Rodina [FLAC]\07 - Satujen satu.wav
Pre-gap length 0:00:10.10
Peak level 93.8 %
Track quality 100.0 %
Test CRC 03D12400
Copy CRC 03D12400
Track not present in AccurateRip database
Copy OK
Track 8
Filename C:\EAC\Edward Vesala - 1976 - Rodina [FLAC]\08 - Dady and Komba.wav
Pre-gap length 0:00:04.53
Peak level 98.6 %
Track quality 100.0 %
Test CRC 6B28BF66
Copy CRC 6B28BF66
Track not present in AccurateRip database
Copy OK
Track 9
Filename C:\EAC\Edward Vesala - 1976 - Rodina [FLAC]\09 - Tahdon laulaa.wav
Pre-gap length 0:00:04.12
Peak level 61.6 %
Track quality 100.0 %
Test CRC 9D60ECC7
Copy CRC 9D60ECC7
Track not present in AccurateRip database
Copy OK
None of the tracks are present in the AccurateRip database
No errors occurred
End of status report
 
Содержание индексной карты (.CUE)
REM GENRE "Big Band"
REM DATE 1976
REM DISCID 76102409
REM COMMENT "ExactAudioCopy v0.99pb5"
FILE "01 - Lapsellein.wav" WAVE
TRACK 01 AUDIO
INDEX 01 00:00:00
TRACK 02 AUDIO
INDEX 00 05:00:05
FILE "02 - Komba.wav" WAVE
INDEX 01 00:00:00
TRACK 03 AUDIO
INDEX 00 07:23:73
FILE "03 - Rodina.wav" WAVE
INDEX 01 00:00:00
TRACK 04 AUDIO
INDEX 00 07:49:65
FILE "04 - Tдhden lento.wav" WAVE
INDEX 01 00:00:00
TRACK 05 AUDIO
INDEX 00 03:06:58
FILE "05 - Satujen satu.wav" WAVE
INDEX 01 00:00:00
TRACK 06 AUDIO
INDEX 00 12:06:08
FILE "06 - Tahdon laulaa.wav" WAVE
INDEX 01 00:00:00
TRACK 07 AUDIO
INDEX 00 06:49:45
FILE "07 - Satujen satu.wav" WAVE
INDEX 01 00:00:00
TRACK 08 AUDIO
INDEX 00 12:08:40
FILE "08 - Dady and Komba.wav" WAVE
INDEX 01 00:00:00
TRACK 09 AUDIO
INDEX 00 06:59:50
FILE "09 - Tahdon laulaa.wav" WAVE
INDEX 01 00:00:00
 
Лог проверки качества
d:\>d:\aucdtect -d/-m0 d:\zzz\*.wav
auCDtect: CD records authenticity detector, version 0.8.2
Copyright (c) 2004 Oleg Berngardt. All rights reserved.
Copyright (c) 2004 Alexander Djourik. All rights reserved.
------------------------------------------------------------
Processing file: [01. Lapsellein.wav]
------------------------------------------------------------
This track looks like CDDA with probability 100%
------------------------------------------------------------
Processing file: [02. Komba.wav]
------------------------------------------------------------
This track looks like CDDA with probability 100%
------------------------------------------------------------
Processing file: [03. Rodina.wav]
------------------------------------------------------------
This track looks like CDDA with probability 100%
------------------------------------------------------------
Processing file: [04. Tahden lento.wav]
------------------------------------------------------------
This track looks like CDDA with probability 100%
------------------------------------------------------------
Processing file: [05. Satujen satu.wav]
------------------------------------------------------------
This track looks like CDDA with probability 100%
------------------------------------------------------------
Processing file: [06. Tahdon laulaa.wav]
------------------------------------------------------------
This track looks like CDDA with probability 100%
------------------------------------------------------------
Processing file: [07. Satujen satu.wav]
------------------------------------------------------------
This track looks like MPEG with probability 100%
------------------------------------------------------------
Processing file: [08. Dady and Komba.wav]
------------------------------------------------------------
This track looks like CDDA with probability 92%
------------------------------------------------------------
Processing file: [09. Tahdon laulaa.wav]
------------------------------------------------------------
This track looks like MPEG with probability 100%
------------------------------------------------------------
Final Conclusion:
------------------------------------------------------------
Could not qualify the source of these tracks.
d:\>del d:\zzz\*.wav
 
Скриншот спектра частот
Доп. информация:
 
Album Info
Mixed By - Edward Vesala , Mikael Nuorivaara
Recorded By - Erkki Hyvonen , Mikael Nuorivaara , Paul Jyrala
Recorded at Finnvox Studios, Helsinki, Finalnd, May 1976
Originally released as Love LRLP 189 in 1977.
 
Состав
Bass - Pekka Sarmanto
Clarinet - Pekka Poyry
Clarinet [Bass], Saxophone [Baritone] - Pentti Lahti
Drums, Percussion, Composed By, Producer - Edward Vesala
Flute - Juhani Aaltonen , Pekka Poyry
Flute [Alto, Piccolo] - Juhani Aaltonen
Guitar - Pekka Rechardt
Piano, Vibraphone - Esa Helasvuo
Saxophone [Alto] - Pekka Poyry
Saxophone [Soprano] - Pekka Poyry , Tomasz Szukalski
Saxophone [Tenor] - Juhani Aaltonen , Tomasz Szukalski
Trombone - Mircea Stan
Trumpet - Tomasz Stanko
Vocals - Irina Milan
По всем вопросам пишите личное сообщение пользователю M0p94ok.
05:10
160
Нет комментариев. Ваш будет первым!