Вы используете незарегистрированную версию компонента "Вкладки"!

Поиск

(Avant-Garde / Free Jazz / Post-Bop) Warren Smith / The Composer's Workshop Ensemble - Old News Borrowed Blues - 2009, FLAC (image+.cue) lossless

(Avant-Garde / Free Jazz / Post-Bop) Warren Smith / The Composer's Workshop Ensemble - Old News Borrowed Blues - 2009, FLAC (image+.cue) lossless
Треклист:
Warren Smith / The Composer's Workshop Ensemble - Old News Borrowed Blues

Жанр: Avant-Garde / Free Jazz / Post-Bop
Страна-производитель диска: USA
Год издания диска: 2009
Издатель (лейбл): Engine 027
Аудио кодек: FLAC (*.flac)
Тип рипа: image+.cue
Битрейт аудио: lossless
Продолжительность: 1:01:33
Источник (релизер): собственный рип
Наличие сканов в содержимом раздачи: нет
John Carlton: trumpet, flugelhorn
Cecil Bridgewater: trumpet, flugelhorn
Joe Daley: euphonium
Jack Jeffers: bass trombone
Craig Rivers: soprano sax
James Stewart: tenor sax
Douglas Yates: alto sax
Andrew Lamb: tenor sax (River State Suite)
Claire Daly: baritone sax
Jeribu Shahid: bass violin
Yoham "Chiqui" Ortiz: guitar
Elusegun Sangofemi: African percussion
Jose Abreu: African percussion
Lloyd Haber: drums, vibraphone, percussion
Warren Smith: drums, vibraphone, percussion
1. Lock The Toilet Door
Rivers State Suite
2. I
3. II
4. III
5. The Hungarian Gypsy Song
6. One More Lick For Harold Vick
Free Forms
7. I
8. II
9. III
10. IV
Produced and engineered by Steven Walcott at Ghetto Sound Lab, Brooklyn, NY.
 
Лог создания рипа
Exact Audio Copy V0.99 prebeta 4 from 23. January 2008
EAC extraction logfile from 19. June 2010, 22:15
Warren Smith / Old News Borrowed Blues
Used drive : TSSTcorpCD/DVDW SH-S182M Adapter: 1 ID: 0
Read mode : Secure
Utilize accurate stream : Yes
Defeat audio cache : Yes
Make use of C2 pointers : No
Read offset correction : 6
Overread into Lead-In and Lead-Out : No
Fill up missing offset samples with silence : Yes
Delete leading and trailing silent blocks : No
Null samples used in CRC calculations : Yes
Used interface : Installed external ASPI interface
Used output format : User Defined Encoder
Selected bitrate : 1024 kBit/s
Quality : High
Add ID3 tag : No
Command line compressor : C:\Program Files\Exact Audio Copy\Flac\flac.exe
Additional command line options : -6 -V -T "ARTIST=%a" -T "TITLE=%t" -T "ALBUM=%g" -T "DATE=%y" -T "TRACKNUMBER=%n" -T "GENRE=%m" -T "COMMENT=EAC FLAC -6" %s
TOC of the extracted CD
Track | Start | Length | Start sector | End sector
---------------------------------------------------------
1 | 0:00.00 | 8:21.14 | 0 | 37588
2 | 8:21.14 | 6:22.30 | 37589 | 66268
3 | 14:43.44 | 3:35.20 | 66269 | 82413
4 | 18:18.64 | 8:04.25 | 82414 | 118738
5 | 26:23.14 | 7:03.65 | 118739 | 150528
6 | 33:27.04 | 6:41.69 | 150529 | 180672
7 | 40:08.73 | 6:34.40 | 180673 | 210262
8 | 46:43.38 | 4:51.05 | 210263 | 232092
9 | 51:34.43 | 5:23.57 | 232093 | 256374
10 | 56:58.25 | 4:34.50 | 256375 | 276974
Range status and errors
Selected range
Filename C:\Users\Igor\Music\eac\Warren Smith - Old News Borrowed Blues.wav
Peak level 94.9 %
Range quality 100.0 %
Test CRC 477A8697
Copy CRC 477A8697
Copy OK
No errors occurred
AccurateRip summary
Track 1 accurately ripped (confidence 1) [EA0DB471]
Track 2 accurately ripped (confidence 1) [957FFFE2]
Track 3 accurately ripped (confidence 1) [9D26DFF8]
Track 4 accurately ripped (confidence 1) [5526F76B]
Track 5 accurately ripped (confidence 1) [FE802FB7]
Track 6 accurately ripped (confidence 1) [DDF2B445]
Track 7 accurately ripped (confidence 1) [A5FCC701]
Track 8 accurately ripped (confidence 1) [C1FEFEE5]
Track 9 accurately ripped (confidence 1) [24A179E4]
Track 10 accurately ripped (confidence 1) [851B351F]
All tracks accurately ripped
End of status report
Any questions -> support@pro-jazz.com. По всем вопросам пишите -> support@pro-jazz.com
05:09
131
Нет комментариев. Ваш будет первым!