Вы используете незарегистрированную версию компонента "Вкладки"!

Поиск

(Free / Avant-Garde) Daniel Levin Quartet - Bacalhau - 2010, FLAC (image+.cue) lossless

(Free / Avant-Garde) Daniel Levin Quartet - Bacalhau - 2010, FLAC (image+.cue) lossless
Треклист:
Daniel Levin Quartet - Bacalhau

Жанр: Free / Avant-Garde
Страна-производитель диска: Portugal
Год издания диска: 2010
Издатель (лейбл): Clean Feed CF195
Аудио кодек: FLAC (*.flac)
Тип рипа: image+.cue
Битрейт аудио: lossless
Продолжительность: 55:16
Источник (релизер): собственный рип
Наличие сканов в содержимом раздачи: нет
Daniel Levin: cello
Nate Wooley: trumpet
Peter Bitenc: double bass
Matt Moran: vibraphone
1. Looken
2. Duo: Nate and Matt
3. Bronx #3
4. Dock
5. P's Jammies
6. Oh, Really?
7. Duo: Daniel and Nate
8. Soul Retrieval
9. Knickerbocker
Recorded on June 6th, 2009 Live at Salao Brazil, Coimbra as a part of the Jazz ao Centro festival by Joao Ferraz.
 
Лог создания рипа
Exact Audio Copy V0.99 prebeta 4 from 23. January 2008
EAC extraction logfile from 15. October 2010, 21:19
Daniel Levin Quartet / Bacalhau
Used drive : TSSTcorpCD/DVDW SH-S182M Adapter: 2 ID: 0
Read mode : Secure
Utilize accurate stream : Yes
Defeat audio cache : Yes
Make use of C2 pointers : No
Read offset correction : 6
Overread into Lead-In and Lead-Out : No
Fill up missing offset samples with silence : Yes
Delete leading and trailing silent blocks : No
Null samples used in CRC calculations : Yes
Used interface : Installed external ASPI interface
Used output format : User Defined Encoder
Selected bitrate : 1024 kBit/s
Quality : High
Add ID3 tag : No
Command line compressor : C:\Program Files\Exact Audio Copy\Flac\flac.exe
Additional command line options : -6 -V -T "ARTIST=%a" -T "TITLE=%t" -T "ALBUM=%g" -T "DATE=%y" -T "TRACKNUMBER=%n" -T "GENRE=%m" -T "COMMENT=EAC FLAC -6" %s
TOC of the extracted CD
Track | Start | Length | Start sector | End sector
---------------------------------------------------------
1 | 0:00.00 | 9:03.01 | 0 | 40725
2 | 9:03.01 | 3:39.44 | 40726 | 57194
3 | 12:42.45 | 6:26.29 | 57195 | 86173
4 | 19:08.74 | 4:27.50 | 86174 | 106248
5 | 23:36.49 | 6:57.66 | 106249 | 137589
6 | 30:34.40 | 3:58.31 | 137590 | 155470
7 | 34:32.71 | 4:25.62 | 155471 | 175407
8 | 38:58.58 | 12:46.00 | 175408 | 232857
9 | 51:44.58 | 3:31.12 | 232858 | 248694
Range status and errors
Selected range
Filename C:\Users\Igor\Music\eac\Daniel Levin Quartet - Bacalhau.wav
Peak level 97.7 %
Range quality 100.0 %
Test CRC 997F296A
Copy CRC 997F296A
Copy OK
No errors occurred
AccurateRip summary
Track 1 not present in database
Track 2 not present in database
Track 3 not present in database
Track 4 not present in database
Track 5 not present in database
Track 6 not present in database
Track 7 not present in database
Track 8 not present in database
Track 9 not present in database
None of the tracks are present in the AccurateRip database
End of status report

Daniel Levin Trio - Fuhuffah (2008)
По всем вопросам пишите личное сообщение пользователю M0p94ok.
05:10
147
Нет комментариев. Ваш будет первым!