Вы используете незарегистрированную версию компонента "Вкладки"!

Поиск

(Free Jazz, ECM) (Wadada) Leo Smith - Divine Love (ECM 1143) - 1979, FLAC (image+.cue) lossless

Треклист:
(Wadada) Leo Smith / Divine Love (ECM 1143)
Жанр: Free Jazz, ECM
Страна-производитель диска: Germany
Год издания диска: 1979
Издатель (лейбл): ECM Records
Номер по каталогу: ECM 1143
Страна: US
Аудио кодек: FLAC (*.flac)
Тип рипа: image+.cue
Битрейт аудио: lossless
Продолжительность: 44:00
Источник (релизер): Demonoid, tintonium
Наличие сканов в содержимом раздачи: нет
Треклист:
1 Divine Love 21:47
2 Tastalun 6:38
Trumpet - Kenny Wheeler , Lester Bowie
3 Spirituals: The Language Of Love 15:28
Bass - Charlie Haden
 
Лог создания рипа
Exact Audio Copy V0.99 prebeta 4 from 23. January 2008
EAC extraction logfile from 10. May 2008, 0:01
Leo Smith / Divine Love
Used drive : TSSTcorpCD/DVDW SH-S182M Adapter: 2 ID: 0
Read mode : Secure
Utilize accurate stream : Yes
Defeat audio cache : Yes
Make use of C2 pointers : No
Read offset correction : 6
Overread into Lead-In and Lead-Out : No
Fill up missing offset samples with silence : Yes
Delete leading and trailing silent blocks : No
Null samples used in CRC calculations : No
Used interface : Installed external ASPI interface
Used output format : User Defined Encoder
Selected bitrate : 1024 kBit/s
Quality : High
Add ID3 tag : No
Command line compressor : C:\Program Files\Exact Audio Copy\FLAC\FLAC.EXE
Additional command line options : -6 -V -T "ARTIST=%a" -T "TITLE=%t" -T "ALBUM=%g" -T "DATE=%y" -T "TRACKNUMBER=%n" -T "GENRE=%m" -T "COMMENT=%e" %s -o %d
TOC of the extracted CD
Track | Start | Length | Start sector | End sector
---------------------------------------------------------
1 | 0:00.33 | 21:50.00 | 33 | 98282
2 | 21:50.33 | 6:42.00 | 98283 | 128432
3 | 28:32.33 | 15:28.25 | 128433 | 198057
Range status and errors
Selected range
Filename F:\z\Leo Smith - Divine Love.wav
Peak level 99.9 %
Range quality 100.0 %
Copy CRC 22F26F40
Copy OK
No errors occurred
AccurateRip summary
Track 1 not present in database
Track 2 not present in database
Track 3 not present in database
None of the tracks are present in the AccurateRip database
End of status report
 
Лог проверки качества
d:\>d:\aucdtect -d/-m0 d:\zzz\*.wav
auCDtect: CD records authenticity detector, version 0.8.2
Copyright (c) 2004 Oleg Berngardt. All rights reserved.
Copyright (c) 2004 Alexander Djourik. All rights reserved.
------------------------------------------------------------
Processing file: [01. Divine Lovwe.wav]
------------------------------------------------------------
This track looks like CDDA with probability 100%
------------------------------------------------------------
Processing file: [02. Tastalun.wav]
------------------------------------------------------------
This track looks like CDDA with probability 100%
------------------------------------------------------------
Processing file: [03. Spirituals_ The language of love.wav]
------------------------------------------------------------
This track looks like CDDA with probability 100%
------------------------------------------------------------
Final Conclusion:
------------------------------------------------------------
These tracks looks like CDDA with probability 100%
 
Скриншот спектра частот
Доп. информация:
 
Album Info
Artwork By [Design] - Peter Brotzmann
Composed By - Leo Smith
Engineer - Martin Wieland
Photography [Back] - Dani Lienhard, Signe Mahler, Roberto Masotti
Photography [Front] - Roberto Masotti
Producer - Manfred Eicher
Recorded September 1978 at Tonstudio Bauer, Ludwigsburg.
 
Состав
Flute [Alto], Clarinet [Bass], Saxophone [Tenor], Triangle, Kalimba [Mbira] - Dwight Andrews
Trumpet, Flugelhorn, Gong, Percussion [Steel-o-phone] - Leo Smith
Vibraphone [Vibraharp], Marimba, Bells - Bobby Naughton
По всем вопросам пишите личное сообщение пользователю M0p94ok.
05:12
168
Нет комментариев. Ваш будет первым!