Вы используете незарегистрированную версию компонента "Вкладки"!

Поиск

(Avant-Garde / Free Improvisation) Carlos Barretto Lokomotiv - Labirintos - 2010, FLAC (image+.cue) lossless

(Avant-Garde / Free Improvisation) Carlos Barretto Lokomotiv - Labirintos - 2010, FLAC (image+.cue) lossless
Треклист:
Carlos Barretto Lokomotiv - Labirintos

Жанр: Avant-Garde / Free Improvisation
Страна-производитель диска: Portugal
Год издания диска: 2010
Издатель (лейбл): Clean Feed CF179
Аудио кодек: FLAC (*.flac)
Тип рипа: image+.cue
Битрейт аудио: lossless
Продолжительность: 44:25
Источник (релизер): собственный рип
Наличие сканов в содержимом раздачи: нет
Carlos Barretto: double bass, musical direction
Mário Delgado: guitar
José Salgueiro: drums, percussion
1. Salada 2
2. Ponto E Virgula 2
3. Triklo Five
4. Não Sei Porquê (Canção Para Susette)
5. Labirintos
6. Asterion 5
7. Tutti Per Capita
8. Makambira
9. Terra De Ninguem
Recorded by Luis Delgado at Lisboa Studios, Lisbon on November 30 and December 1-2, 2009, except Track 9 recorded at CAE Portalegre on February 19, 2010.
 
Лог создания рипа
Exact Audio Copy V0.99 prebeta 4 from 23. January 2008
EAC extraction logfile from 28. October 2010, 21:17
Carlos Barretto Lokomotiv / Labirintos
Used drive : TSSTcorpCD/DVDW SH-S182M Adapter: 2 ID: 1
Read mode : Secure
Utilize accurate stream : Yes
Defeat audio cache : Yes
Make use of C2 pointers : No
Read offset correction : 6
Overread into Lead-In and Lead-Out : No
Fill up missing offset samples with silence : Yes
Delete leading and trailing silent blocks : No
Null samples used in CRC calculations : Yes
Used interface : Installed external ASPI interface
Used output format : User Defined Encoder
Selected bitrate : 1024 kBit/s
Quality : High
Add ID3 tag : No
Command line compressor : C:\Program Files\Exact Audio Copy\Flac\flac.exe
Additional command line options : -6 -V -T "ARTIST=%a" -T "TITLE=%t" -T "ALBUM=%g" -T "DATE=%y" -T "TRACKNUMBER=%n" -T "GENRE=%m" -T "COMMENT=EAC FLAC -6" %s
TOC of the extracted CD
Track | Start | Length | Start sector | End sector
---------------------------------------------------------
1 | 0:00.00 | 4:49.40 | 0 | 21714
2 | 4:49.40 | 2:54.01 | 21715 | 34765
3 | 7:43.41 | 7:12.30 | 34766 | 67195
4 | 14:55.71 | 5:52.32 | 67196 | 93627
5 | 20:48.28 | 3:52.54 | 93628 | 111081
6 | 24:41.07 | 2:16.38 | 111082 | 121319
7 | 26:57.45 | 3:10.50 | 121320 | 135619
8 | 30:08.20 | 6:30.57 | 135620 | 164926
9 | 36:39.02 | 7:46.05 | 164927 | 199881
Range status and errors
Selected range
Filename C:\Users\Igor\Music\eac\Carlos Barretto Lokomotiv - Labirintos.wav
Peak level 100.0 %
Range quality 100.0 %
Test CRC F96ED5E3
Copy CRC F96ED5E3
Copy OK
No errors occurred
AccurateRip summary
Track 1 not present in database
Track 2 not present in database
Track 3 not present in database
Track 4 not present in database
Track 5 not present in database
Track 6 not present in database
Track 7 not present in database
Track 8 not present in database
Track 9 not present in database
None of the tracks are present in the AccurateRip database
End of status report
Any questions -> support@pro-jazz.com. По всем вопросам пишите -> support@pro-jazz.com
05:13
126
Нет комментариев. Ваш будет первым!