Вы используете незарегистрированную версию компонента "Вкладки"!

Поиск

(Free Jazz) Die Like A Dog Quartet (Peter Brotzmann, Hamid Drake, William Parker) ft. Roy Campbell- From Valley To Valley - 1999, FLAC (tracks+.cue) lossless

(Free Jazz) Die Like A Dog Quartet (Peter Brotzmann, Hamid Drake, William Parker) ft. Roy Campbell- From Valley To Valley - 1999, FLAC (tracks+.cue) lossless
Треклист:
Die Like A Dog Quartet / From Valley To Valley
Жанр: Free Jazz
Страна-производитель диска: США
Год издания диска: 1999
Издатель (лейбл): Eremite
Номер по каталогу: MTE-18 CD
Страна: Германия, США
Аудио кодек: FLAC (*.flac)
Тип рипа: tracks+.cue
Битрейт аудио: lossless
Продолжительность: 1:08:17
Источник (релизер): вот.сиди (box)
Наличие сканов в содержимом раздачи: да
Треклист:
1. I (16:40)
2. announcement (1:27)
3. II (40:02)
4. encore (10:07)
25 July 1998, Fire In The Valley Festival, Bezanson Recital Hall, UMASS Amherst
 
Лог создания рипа
Exact Audio Copy V0.99 prebeta 5 from 4. May 2009
EAC extraction logfile from 17. February 2011, 16:12
Die Like a Dog Quartet / From Valley to Valley
Used drive : SAMSUNG CDRW/DVD SM-308B Adapter: 0 ID: 0
Read mode : Secure
Utilize accurate stream : Yes
Defeat audio cache : Yes
Make use of C2 pointers : No
Read offset correction : 120
Overread into Lead-In and Lead-Out : No
Fill up missing offset samples with silence : Yes
Delete leading and trailing silent blocks : No
Null samples used in CRC calculations : Yes
Used interface : Native Win32 interface for Win NT & 2000
Gap handling : Appended to previous track
Used output format : User Defined Encoder
Selected bitrate : 192 kBit/s
Quality : High
Add ID3 tag : Yes
Command line compressor : C:\Documents and Settings\jhudak\Desktop\Joe\Exact Audio Copy\FLAC\flac.exe
Additional command line options : -V -8 -T "artist=%a" -T "title=%t" -T "album=%g" -T "date=%y" -T "tracknumber=%n" -T "genre=%m" %s
TOC of the extracted CD
Track | Start | Length | Start sector | End sector
---------------------------------------------------------
1 | 0:00.00 | 16:40.74 | 0 | 75073
2 | 16:40.74 | 1:26.60 | 75074 | 81583
3 | 18:07.59 | 40:02.21 | 81584 | 261754
4 | 58:10.05 | 10:06.73 | 261755 | 307277
Track 1
Filename C:\Documents and Settings\jhudak\Desktop\Joe\Die Like a Dog Quartet - From Valley to Valley (1998)\Die Like a Dog Quartet - 01 - I.wav
Pre-gap length 0:00:02.00
Peak level 96.3 %
Track quality 100.0 %
Test CRC 4561F76E
Copy CRC 4561F76E
Accurately ripped (confidence 2) [EDE2C82B]
Copy OK
Track 2
Filename C:\Documents and Settings\jhudak\Desktop\Joe\Die Like a Dog Quartet - From Valley to Valley (1998)\Die Like a Dog Quartet - 02 - announcement.wav
Peak level 90.0 %
Track quality 100.0 %
Test CRC D4A98A50
Copy CRC D4A98A50
Accurately ripped (confidence 2) [B94A6D49]
Copy OK
Track 3
Filename C:\Documents and Settings\jhudak\Desktop\Joe\Die Like a Dog Quartet - From Valley to Valley (1998)\Die Like a Dog Quartet - 03 - II.wav
Peak level 93.0 %
Track quality 99.9 %
Test CRC D08BF1BA
Copy CRC D08BF1BA
Accurately ripped (confidence 2) [BE19C849]
Copy OK
Track 4
Filename C:\Documents and Settings\jhudak\Desktop\Joe\Die Like a Dog Quartet - From Valley to Valley (1998)\Die Like a Dog Quartet - 04 - encore.wav
Peak level 88.7 %
Track quality 100.0 %
Test CRC F286A9C0
Copy CRC F286A9C0
Accurately ripped (confidence 2) [C772C329]
Copy OK
All tracks accurately ripped
No errors occurred
End of status report
 
Содержание индексной карты (.CUE)
REM GENRE Jazz
REM DATE 1998
REM DISCID 29100104
REM COMMENT "ExactAudioCopy v0.99pb5"
PERFORMER "Die Like a Dog Quartet"
TITLE "From Valley to Valley"
FILE "Die Like a Dog Quartet - 01 - I.wav" WAVE
TRACK 01 AUDIO
TITLE "I"
PERFORMER "Die Like a Dog Quartet"
FLAGS DCP
INDEX 01 00:00:00
FILE "Die Like a Dog Quartet - 02 - announcement.wav" WAVE
TRACK 02 AUDIO
TITLE "announcement"
PERFORMER "Die Like a Dog Quartet"
FLAGS DCP
INDEX 01 00:00:00
FILE "Die Like a Dog Quartet - 03 - II.wav" WAVE
TRACK 03 AUDIO
TITLE "II"
PERFORMER "Die Like a Dog Quartet"
FLAGS DCP
INDEX 01 00:00:00
FILE "Die Like a Dog Quartet - 04 - encore.wav" WAVE
TRACK 04 AUDIO
TITLE "encore"
PERFORMER "Die Like a Dog Quartet"
FLAGS DCP
INDEX 01 00:00:00
 
Лог проверки качества
AUDIOCHECKER v2.0 beta (build 457) - by Dester - opdester@freemail.hu
~~~~~~~~~~~~~~~~~~~~~~~~~~~~~~~~~~
-=== DO NOT EDIT THIS FILE! ===-
Path: ...\Die Like a Dog Quartet - From Valley to Valley (1998)
1 -=- Die Like a Dog Quartet - 01 - I.flac -=- CDDA (100%)
2 -=- Die Like a Dog Quartet - 02 - announcement.flac -=- CDDA (99%)
3 -=- Die Like a Dog Quartet - 03 - II.flac -=- CDDA (100%)
4 -=- Die Like a Dog Quartet - 04 - encore.flac -=- CDDA (100%)
Summary 99,75% CDDA
142869668
 
Состав
Peter Brötzmann alto & tenor saxophones, clarinet, tarogato
Roy Campbell flugelhorn, trumpet, pocket trumpet
Hamid Drake drums & percussion
William Parker bass
Any questions -> support@pro-jazz.com. По всем вопросам пишите -> support@pro-jazz.com
05:13
125
Нет комментариев. Ваш будет первым!