Вы используете незарегистрированную версию компонента "Вкладки"!

Поиск

(Experimental / Free improvisation) Supersilent - 10 - 2010, FLAC (tracks+.cue) lossless

Треклист:
Supersilent / 10
Жанр: Experimental / Free improvisation
Страна-производитель диска: Норвегия
Год издания диска: 2010
Издатель (лейбл): Rune Grammofon
Номер по каталогу: RCD2102
Страна: Норвегия
Аудио кодек: FLAC (*.flac)
Тип рипа: tracks+.cue
Битрейт аудио: lossless
Продолжительность: 41:52
Источник (релизер): вот.сиди (mistr)
Наличие сканов в содержимом раздачи: нет
Треклист:
10.1 1:05
10.2 2:40
10.3 6:00
10.4 1:23
10.5 4:11
10.6 4:12
10.7 1:45
10.8 7:36
10.9 5:37
10.10 1:32
10.11 1:44
10.12 4:00
 
Лог создания рипа
X Lossless Decoder version 20110703 (135.1)
XLD extraction logfile from 2011-08-10 21:23:27 -0700
Supersilent / 10
Used drive : MATSHITA DVD-R UJ-868 (revision KB19)
Ripper mode : CDParanoia III 10.2
Disable audio cache : OK for the drive with a cache less than 2750KiB
Make use of C2 pointers : NO
Read offset correction : 102
Max retry count : 100
Gap status : Analyzed, Appended (except HTOA)
TOC of the extracted CD
Track | Start | Length | Start sector | End sector
---------------------------------------------------------
1 | 00:00:00 | 01:05:52 | 0 | 4926
2 | 01:05:52 | 02:40:50 | 4927 | 16976
3 | 03:46:27 | 06:00:25 | 16977 | 44001
4 | 09:46:52 | 01:23:68 | 44002 | 50294
5 | 11:10:45 | 04:11:45 | 50295 | 69164
6 | 15:22:15 | 04:12:30 | 69165 | 88094
7 | 19:34:45 | 01:45:45 | 88095 | 96014
8 | 21:20:15 | 07:36:65 | 96015 | 130279
9 | 28:57:05 | 05:37:35 | 130280 | 155589
10 | 34:34:40 | 01:32:15 | 155590 | 162504
11 | 36:06:55 | 01:44:12 | 162505 | 170316
12 | 37:50:67 | 04:00:52 | 170317 | 188368
AccurateRip Summary
Track 01 : OK (AR2, confidence 2)
Track 02 : OK (AR2, confidence 2)
Track 03 : OK (AR2, confidence 2)
Track 04 : OK (AR2, confidence 2)
Track 05 : OK (AR2, confidence 2)
Track 06 : OK (AR2, confidence 2)
Track 07 : OK (AR2, confidence 2)
Track 08 : OK (AR2, confidence 2)
Track 09 : OK (AR2, confidence 2)
Track 10 : OK (AR2, confidence 2)
Track 11 : OK (AR2, confidence 2)
Track 12 : OK (AR2, confidence 2)
->All tracks accurately ripped.
All Tracks
Album gain : 0.51 dB
Peak : 0.975159
Statistics
Read error : 0
Skipped (treated as error) : 0
Edge jitter error (maybe fixed) : 0
Atom jitter error (maybe fixed) : 0
Drift error (maybe fixed) : 0
Dropped bytes error (maybe fixed) : 0
Duplicated bytes error (maybe fixed) : 0
Track 01
Filename : /Users/Mike/Music/FLAC files/Supersilent/Supersilent - 2010 - 10 [FLAC]/01 - 10.1.flac
Pre-gap length : 00:02:00
Track gain : 2.37 dB
Peak : 0.565430
CRC32 hash (test run) : D9915760
CRC32 hash : D9915760
CRC32 hash (skip zero) : 64DA1166
AccurateRip signature : 6EBDB52C
->Accurately ripped! (AR2, confidence 2)
Statistics
Read error : 0
Skipped (treated as error) : 0
Edge jitter error (maybe fixed) : 0
Atom jitter error (maybe fixed) : 0
Drift error (maybe fixed) : 0
Dropped bytes error (maybe fixed) : 0
Duplicated bytes error (maybe fixed) : 0
Inconsistency in error sectors : 0
Track 02
Filename : /Users/Mike/Music/FLAC files/Supersilent/Supersilent - 2010 - 10 [FLAC]/02 - 10.2.flac
Pre-gap length : 00:03:04
Track gain : 13.94 dB
Peak : 0.325043
CRC32 hash (test run) : 2BEE0DD8
CRC32 hash : 2BEE0DD8
CRC32 hash (skip zero) : 3E377CEB
AccurateRip signature : 39992FBD
->Accurately ripped! (AR2, confidence 2)
Statistics
Read error : 0
Skipped (treated as error) : 0
Edge jitter error (maybe fixed) : 0
Atom jitter error (maybe fixed) : 0
Drift error (maybe fixed) : 0
Dropped bytes error (maybe fixed) : 0
Duplicated bytes error (maybe fixed) : 0
Inconsistency in error sectors : 0
Track 03
Filename : /Users/Mike/Music/FLAC files/Supersilent/Supersilent - 2010 - 10 [FLAC]/03 - 10.3.flac
Pre-gap length : 00:05:37
Track gain : 3.17 dB
Peak : 0.602661
CRC32 hash (test run) : E35B16CC
CRC32 hash : E35B16CC
CRC32 hash (skip zero) : B9140BCC
AccurateRip signature : 6B2E0B77
->Accurately ripped! (AR2, confidence 2)
Statistics
Read error : 0
Skipped (treated as error) : 0
Edge jitter error (maybe fixed) : 0
Atom jitter error (maybe fixed) : 0
Drift error (maybe fixed) : 0
Dropped bytes error (maybe fixed) : 0
Duplicated bytes error (maybe fixed) : 0
Inconsistency in error sectors : 0
Track 04
Filename : /Users/Mike/Music/FLAC files/Supersilent/Supersilent - 2010 - 10 [FLAC]/04 - 10.4.flac
Pre-gap length : 00:04:06
Track gain : 0.47 dB
Peak : 0.692017
CRC32 hash (test run) : 3ABED5C6
CRC32 hash : 3ABED5C6
CRC32 hash (skip zero) : C95B4F43
AccurateRip signature : 99D00817
->Accurately ripped! (AR2, confidence 2)
Statistics
Read error : 0
Skipped (treated as error) : 0
Edge jitter error (maybe fixed) : 0
Atom jitter error (maybe fixed) : 0
Drift error (maybe fixed) : 0
Dropped bytes error (maybe fixed) : 0
Duplicated bytes error (maybe fixed) : 0
Inconsistency in error sectors : 0
Track 05
Filename : /Users/Mike/Music/FLAC files/Supersilent/Supersilent - 2010 - 10 [FLAC]/05 - 10.5.flac
Pre-gap length : 00:04:35
Track gain : 1.03 dB
Peak : 0.972809
CRC32 hash (test run) : C50F8869
CRC32 hash : C50F8869
CRC32 hash (skip zero) : 91C4F76D
AccurateRip signature : 7CA0E016
->Accurately ripped! (AR2, confidence 2)
Statistics
Read error : 0
Skipped (treated as error) : 0
Edge jitter error (maybe fixed) : 0
Atom jitter error (maybe fixed) : 0
Drift error (maybe fixed) : 0
Dropped bytes error (maybe fixed) : 0
Duplicated bytes error (maybe fixed) : 0
Inconsistency in error sectors : 0
Track 06
Filename : /Users/Mike/Music/FLAC files/Supersilent/Supersilent - 2010 - 10 [FLAC]/06 - 10.6.flac
Pre-gap length : 00:05:04
Track gain : 5.14 dB
Peak : 0.516022
CRC32 hash (test run) : FD4FAC5A
CRC32 hash : FD4FAC5A
CRC32 hash (skip zero) : C0408ADC
AccurateRip signature : 81E419A9
->Accurately ripped! (AR2, confidence 2)
Statistics
Read error : 0
Skipped (treated as error) : 0
Edge jitter error (maybe fixed) : 0
Atom jitter error (maybe fixed) : 0
Drift error (maybe fixed) : 0
Dropped bytes error (maybe fixed) : 0
Duplicated bytes error (maybe fixed) : 0
Inconsistency in error sectors : 0
Track 07
Filename : /Users/Mike/Music/FLAC files/Supersilent/Supersilent - 2010 - 10 [FLAC]/07 - 10.7.flac
Pre-gap length : 00:17:29
Track gain : 2.42 dB
Peak : 0.489044
CRC32 hash (test run) : 67FFAD85
CRC32 hash : 67FFAD85
CRC32 hash (skip zero) : ECCF8979
AccurateRip signature : C12966F5
->Accurately ripped! (AR2, confidence 2)
Statistics
Read error : 0
Skipped (treated as error) : 0
Edge jitter error (maybe fixed) : 0
Atom jitter error (maybe fixed) : 0
Drift error (maybe fixed) : 0
Dropped bytes error (maybe fixed) : 0
Duplicated bytes error (maybe fixed) : 0
Inconsistency in error sectors : 0
Track 08
Filename : /Users/Mike/Music/FLAC files/Supersilent/Supersilent - 2010 - 10 [FLAC]/08 - 10.8.flac
Pre-gap length : 00:12:44
Track gain : 6.23 dB
Peak : 0.636719
CRC32 hash (test run) : 5D3997B7
CRC32 hash : 5D3997B7
CRC32 hash (skip zero) : BFF5074B
AccurateRip signature : 43441E01
->Accurately ripped! (AR2, confidence 2)
Statistics
Read error : 0
Skipped (treated as error) : 0
Edge jitter error (maybe fixed) : 0
Atom jitter error (maybe fixed) : 0
Drift error (maybe fixed) : 0
Dropped bytes error (maybe fixed) : 0
Duplicated bytes error (maybe fixed) : 0
Inconsistency in error sectors : 0
Track 09
Filename : /Users/Mike/Music/FLAC files/Supersilent/Supersilent - 2010 - 10 [FLAC]/09 - 10.9.flac
Pre-gap length : 00:05:28
Track gain : -0.21 dB
Peak : 0.974365
CRC32 hash (test run) : 650DEEA1
CRC32 hash : 650DEEA1
CRC32 hash (skip zero) : 0771BA8F
AccurateRip signature : 5C743EC3
->Accurately ripped! (AR2, confidence 2)
Statistics
Read error : 0
Skipped (treated as error) : 0
Edge jitter error (maybe fixed) : 0
Atom jitter error (maybe fixed) : 0
Drift error (maybe fixed) : 0
Dropped bytes error (maybe fixed) : 0
Duplicated bytes error (maybe fixed) : 0
Inconsistency in error sectors : 0
Track 10
Filename : /Users/Mike/Music/FLAC files/Supersilent/Supersilent - 2010 - 10 [FLAC]/10 - 10.10.flac
Pre-gap length : 00:08:47
Track gain : 4.68 dB
Peak : 0.359436
CRC32 hash (test run) : 03B1EAA9
CRC32 hash : 03B1EAA9
CRC32 hash (skip zero) : 4A6A627E
AccurateRip signature : AB5991D5
->Accurately ripped! (AR2, confidence 2)
Statistics
Read error : 0
Skipped (treated as error) : 0
Edge jitter error (maybe fixed) : 0
Atom jitter error (maybe fixed) : 0
Drift error (maybe fixed) : 0
Dropped bytes error (maybe fixed) : 0
Duplicated bytes error (maybe fixed) : 0
Inconsistency in error sectors : 0
Track 11
Filename : /Users/Mike/Music/FLAC files/Supersilent/Supersilent - 2010 - 10 [FLAC]/11 - 10.11.flac
Pre-gap length : 00:03:70
Track gain : 17.90 dB
Peak : 0.874542
CRC32 hash (test run) : 3AB4CE04
CRC32 hash : 3AB4CE04
CRC32 hash (skip zero) : 3FCB23BD
AccurateRip signature : 742317EC
->Accurately ripped! (AR2, confidence 2)
Statistics
Read error : 0
Skipped (treated as error) : 0
Edge jitter error (maybe fixed) : 0
Atom jitter error (maybe fixed) : 0
Drift error (maybe fixed) : 0
Dropped bytes error (maybe fixed) : 0
Duplicated bytes error (maybe fixed) : 0
Inconsistency in error sectors : 0
Track 12
Filename : /Users/Mike/Music/FLAC files/Supersilent/Supersilent - 2010 - 10 [FLAC]/12 - 10.12.flac
Pre-gap length : 00:02:67
Track gain : -4.43 dB
Peak : 0.975159
CRC32 hash (test run) : BA6D251E
CRC32 hash : BA6D251E
CRC32 hash (skip zero) : 70CF26A8
AccurateRip signature : 0A92FB2E
->Accurately ripped! (AR2, confidence 2)
Statistics
Read error : 0
Skipped (treated as error) : 0
Edge jitter error (maybe fixed) : 0
Atom jitter error (maybe fixed) : 0
Drift error (maybe fixed) : 0
Dropped bytes error (maybe fixed) : 0
Duplicated bytes error (maybe fixed) : 0
Inconsistency in error sectors : 0
No errors occurred
End of status report
 
Содержание индексной карты (.CUE)
TITLE "10"
PERFORMER "Supersilent"
REM GENRE "Avant-Garde Jazz"
REM DATE "2010-10-18"
REM DISCNUMBER 1
REM TOTALDISCS 1
REM DISCID AB09CF0C
FILE "01 - 10.1.wav" WAVE
TRACK 01 AUDIO
TITLE "10.1"
FLAGS DCP
INDEX 01 00:00:00
TRACK 02 AUDIO
TITLE "10.2"
ISRC NOFGR1002020
FLAGS DCP
INDEX 00 01:02:48
FILE "02 - 10.2.wav" WAVE
INDEX 01 00:00:00
TRACK 03 AUDIO
TITLE "10.3"
ISRC NOFGR1002030
FLAGS DCP
INDEX 00 02:35:13
FILE "03 - 10.3.wav" WAVE
INDEX 01 00:00:00
TRACK 04 AUDIO
TITLE "10.4"
ISRC NOFGR1002040
FLAGS DCP
INDEX 00 05:56:19
FILE "04 - 10.4.wav" WAVE
INDEX 01 00:00:00
TRACK 05 AUDIO
TITLE "10.5"
ISRC NOFGR1002050
FLAGS DCP
INDEX 00 01:19:33
FILE "05 - 10.5.wav" WAVE
INDEX 01 00:00:00
TRACK 06 AUDIO
TITLE "10.6"
ISRC NOFGR1002060
FLAGS DCP
INDEX 00 04:06:41
FILE "06 - 10.6.wav" WAVE
INDEX 01 00:00:00
TRACK 07 AUDIO
TITLE "10.7"
ISRC NOFGR1002070
FLAGS DCP
INDEX 00 03:55:01
FILE "07 - 10.7.wav" WAVE
INDEX 01 00:00:00
TRACK 08 AUDIO
TITLE "10.8"
ISRC NOFGR1002080
FLAGS DCP
INDEX 00 01:33:01
FILE "08 - 10.8.wav" WAVE
INDEX 01 00:00:00
TRACK 09 AUDIO
TITLE "10.9"
ISRC NOFGR1002090
FLAGS DCP
INDEX 00 07:31:37
FILE "09 - 10.9.wav" WAVE
INDEX 01 00:00:00
TRACK 10 AUDIO
TITLE "10.10"
ISRC NOFGR1002100
FLAGS DCP
INDEX 00 05:28:63
FILE "10 - 10.10.wav" WAVE
INDEX 01 00:00:00
TRACK 11 AUDIO
TITLE "10.11"
ISRC NOFGR1002110
FLAGS DCP
INDEX 00 01:28:20
FILE "11 - 10.11.wav" WAVE
INDEX 01 00:00:00
TRACK 12 AUDIO
TITLE "10.12"
ISRC NOFGR1002120
FLAGS DCP
INDEX 00 01:41:20
FILE "12 - 10.12.wav" WAVE
INDEX 01 00:00:00
 
Лог проверки качества
AUDIOCHECKER v2.0 beta (build 457) - by Dester - opdester@freemail.hu
~~~~~~~~~~~~~~~~~~~~~~~~~~~~~~~~~~
-=== DO NOT EDIT THIS FILE! ===-
Path: ...\Supersilent - 2010 - 10 [FLAC]
01 -=- 01 - 10.1.flac -=- MPEG (99%)
02 -=- 02 - 10.2.flac -=- CDDA (58%)
03 -=- 03 - 10.3.flac -=- MPEG (99%)
04 -=- 04 - 10.4.flac -=- CDDA (43%)
05 -=- 05 - 10.5.flac -=- CDDA (100%)
06 -=- 06 - 10.6.flac -=- CDDA (100%)
07 -=- 07 - 10.7.flac -=- MPEG (93%)
08 -=- 08 - 10.8.flac -=- MPEG (100%)
09 -=- 09 - 10.9.flac -=- CDDA (100%)
10 -=- 10 - 10.10.flac -=- MPEG (80%)
11 -=- 11 - 10.11.flac -=- CDDA (100%)
12 -=- 12 - 10.12.flac -=- MPEG (89%)
Summary 45,08% CDDA
169159044
 
Скриншот спектра частот
 
Состав
Arve Henriksen: trumpet, laptop, effects;
Ståle Storløkken: piano, keyboards, effects;
Helge Sten: guitar, keyboard, laptop, effects
11
Any questions -> support@pro-jazz.com. По всем вопросам пишите -> support@pro-jazz.com
05:14
154
Нет комментариев. Ваш будет первым!