Вы используете незарегистрированную версию компонента "Вкладки"!

Поиск

(avant-garde) The Jazz Composer's Orchestra of America - Communication (1964, fontana), FLAC (tracks+.cue) lossless

(avant-garde) The Jazz Composer's Orchestra of America - Communication (1964, fontana), FLAC (tracks+.cue) lossless
Треклист:


The Jazz Composer's Orchestra of America- Communication (1964, fontana)

Жанр: avant-garde
Год издания диска: 1964
Издатель (лейбл):fontana
Аудио кодек: FLAC (*.flac)
Тип рипа: tracks+.cue
Битрейт аудио: lossless
Продолжительность: 39`23
Источник (релизер): ed2k
Наличие сканов в содержимом раздачи: нет
Треклист:
1. "Roast" (Carla Bley) - 12:25
2. "Day (Communications No. 4)" (Michael Mantler) - 2:25
3. "Communications No. 5" (Michael Mantler) - 25:50
 
Лог создания рипа
Exact Audio Copy V0.99 prebeta 4 from 23. January 2008
EAC extraction logfile from 21. May 2008, 18:01
The Jazz Composer's Orchestra / Communication
Used drive : _NEC DVD_RW ND-3520A Adapter: 1 ID: 0
Read mode : Secure
Utilize accurate stream : Yes
Defeat audio cache : Yes
Make use of C2 pointers : No
Read offset correction : 48
Overread into Lead-In and Lead-Out : No
Fill up missing offset samples with silence : Yes
Delete leading and trailing silent blocks : No
Null samples used in CRC calculations : Yes
Used interface : Installed external ASPI interface
Gap handling : Appended to previous track
Used output format : User Defined Encoder
Selected bitrate : 1024 kBit/s
Quality : High
Add ID3 tag : No
Command line compressor : C:\Program Files\FLAC\flac.exe
Additional command line options : -8 -V -T "ARTIST=%a" -T "TITLE=%t" -T "ALBUM=%g" -T "DATE=%y" -T "TRACKNUMBER=%n" -T "GENRE=%m" -T "COMMENT=EAC FLAC -8" %s
TOC of the extracted CD
Track | Start | Length | Start sector | End sector
---------------------------------------------------------
1 | 0:00.00 | 11:53.50 | 0 | 53524
2 | 11:53.50 | 2:32.53 | 53525 | 64977
3 | 14:26.28 | 24:57.06 | 64978 | 177258
Track 1
Filename C:\Documents and Settings\All Users\Documents\Uploads\P\The Jazz Composer's Orchestra - Communication (1964) [FLAC]\01 - Roast.wav
Pre-gap length 0:00:02.00
Peak level 97.7 %
Track quality 100.0 %
Test CRC EE809798
Copy CRC EE809798
Track not present in AccurateRip database
Copy OK
Track 2
Filename C:\Documents and Settings\All Users\Documents\Uploads\P\The Jazz Composer's Orchestra - Communication (1964) [FLAC]\02 - Day (Communication No. 4).wav
Peak level 97.7 %
Track quality 100.0 %
Test CRC DB8B23BC
Copy CRC DB8B23BC
Track not present in AccurateRip database
Copy OK
Track 3
Filename C:\Documents and Settings\All Users\Documents\Uploads\P\The Jazz Composer's Orchestra - Communication (1964) [FLAC]\03 - Communication No. 5.wav
Peak level 97.7 %
Track quality 100.0 %
Test CRC C6B636EB
Copy CRC C6B636EB
Track not present in AccurateRip database
Copy OK
None of the tracks are present in the AccurateRip database
No errors occurred
End of status report
 
Содержание индексной карты (.CUE)
REM GENRE
REM DATE
REM COMMENT EAC FLAC -8
PERFORMER "The Jazz Composer's Orchestra"
TITLE "Communication"
FILE "01 - Roast.flac" WAVE
TRACK 01 AUDIO
TITLE "Roast"
INDEX 01 00:00:00
FILE "02 - Day (Communication No. 4).flac" WAVE
TRACK 02 AUDIO
TITLE "Day (Communication No. 4)"
INDEX 01 00:00:00
FILE "03 - Communication No. 5.flac" WAVE
TRACK 03 AUDIO
TITLE "Communication No. 5"
INDEX 01 00:00:00
 
Состав
* Michael Mantler - trumpet
* Roswell Rudd - trombone
* Steve Lacy soprano saxophone
* Jimmy Lyons - alto saxophone
* Fred Pirtle baritone saxophone
* Paul Bley - piano
* Willie Ruff - french horn (track 1)
* John Tchicai - alto saxophone (track 1)
* Archie Shepp - tenor saxophone (track 1)
* Eddie Gomez - bass (track 1)
* Milford Graves - drums (track 1)
* Ray Codrington - trumpet (tracks 2 & 3)
* Robin Kenyatta, Ken McIntyre - alto saxophone (tracks 2 & 3)
* Bob Carducci - tenor saxophone (tracks 2 & 3)
* Kent Carter, Steve Swallow - bass (tracks 2 & 3)
* Barry Altschul - drums (tracks 2 & 3)
другие релизы
Any questions -> support@pro-jazz.com. По всем вопросам пишите -> support@pro-jazz.com
05:15
127
Нет комментариев. Ваш будет первым!