Вы используете незарегистрированную версию компонента "Вкладки"!

Поиск

(avant-garde) The Jazz Composer's Orchestra of America -Communications, 1968 , FLAC (tracks+.cue) lossless

(avant-garde) The Jazz Composer's Orchestra of America -Communications, 1968 , FLAC (tracks+.cue) lossless
Треклист:


The Jazz Composer's Orchestra-Communications, 1968
Жанр: avant-garde
Год издания диска: 1968
Издатель (лейбл): ECM, (Originally on JCOA Records)
Номер по каталогу: Watt 1801
Аудио кодек: FLAC (*.flac)
Тип рипа: tracks+.cue
Битрейт аудио: lossless
Продолжительность: 1`13`42
Источник (релизер): ed2k
Наличие сканов в содержимом раздачи: да
Треклист:
1) Communications #8 (14:09)
2) Communications #9 (8:18)
3) Communications #10 (13:47)
4) Preview (3:35)
5) Communications #11 Part 1 (15:37)
6) Communications #11 Part 2 (18:14)
 
Лог создания рипа
Exact Audio Copy V0.99 prebeta 4 from 23. January 2008
EAC extraction logfile from 23. December 2008, 2:12
Jazz Composer's Orchestra / Communications
Used drive : HL-DT-STDVD-RAM GH22NP20 Adapter: 3 ID: 0
Read mode : Secure
Utilize accurate stream : Yes
Defeat audio cache : Yes
Make use of C2 pointers : No
Read offset correction : 102
Overread into Lead-In and Lead-Out : No
Fill up missing offset samples with silence : Yes
Delete leading and trailing silent blocks : No
Null samples used in CRC calculations : Yes
Used interface : Native Win32 interface for Win NT & 2000
Gap handling : Appended to previous track
Used output format : Internal WAV Routines
Sample format : 44.100 Hz; 16 Bit; Stereo
TOC of the extracted CD
Track | Start | Length | Start sector | End sector
---------------------------------------------------------
1 | 0:00.33 | 14:09.05 | 33 | 63712
2 | 14:09.38 | 8:18.70 | 63713 | 101132
3 | 22:28.33 | 13:47.00 | 101133 | 163157
4 | 36:15.33 | 3:35.70 | 163158 | 179352
5 | 39:51.28 | 15:37.05 | 179353 | 249632
6 | 55:28.33 | 18:14.47 | 249633 | 331729
Track 1
Filename F:\BitTorrent\JCOA - Communications\01 - Communications #8.wav
Pre-gap length 0:00:02.33
Peak level 90.7 %
Track quality 99.9 %
Test CRC 7FB9D2D3
Copy CRC 7FB9D2D3
Track not present in AccurateRip database
Copy OK
Track 2
Filename F:\BitTorrent\JCOA - Communications\02 - Communications #9.wav
Pre-gap length 0:00:04.71
Peak level 63.3 %
Track quality 100.0 %
Test CRC 99A6E877
Copy CRC 99A6E877
Track not present in AccurateRip database
Copy OK
Track 3
Filename F:\BitTorrent\JCOA - Communications\03 - Communications #10.wav
Pre-gap length 0:00:04.44
Peak level 89.4 %
Track quality 100.0 %
Test CRC 4623EB51
Copy CRC 4623EB51
Track not present in AccurateRip database
Copy OK
Track 4
Filename F:\BitTorrent\JCOA - Communications\04 - Preview.wav
Pre-gap length 0:00:04.49
Peak level 82.9 %
Track quality 100.0 %
Test CRC E3235488
Copy CRC E3235488
Track not present in AccurateRip database
Copy OK
Track 5
Filename F:\BitTorrent\JCOA - Communications\05 - Communications #11 Part 1.wav
Pre-gap length 0:00:05.54
Peak level 99.0 %
Track quality 99.9 %
Test CRC 5D7B049F
Copy CRC 5D7B049F
Track not present in AccurateRip database
Copy OK
Track 6
Filename F:\BitTorrent\JCOA - Communications\06 - Communications #11 Part 2.wav
Pre-gap length 0:00:04.21
Peak level 65.8 %
Track quality 100.0 %
Test CRC 19E97BDC
Copy CRC 19E97BDC
Track not present in AccurateRip database
Copy OK
None of the tracks are present in the AccurateRip database
No errors occurred
End of status report
flac -V -8 -P 131072 --delete-input-file *.wav
flac 1.2.1, Copyright (C) 2000,2001,2002,2003,2004,2005,2006,2007 Josh Coalson
flac comes with ABSOLUTELY NO WARRANTY. This is free software, and you are
welcome to redistribute it under certain conditions. Type `flac' for details.
01 - Communications #8.wav: Verify OK, wrote 101245262 bytes, ratio=0.676
02 - Communications #9.wav: Verify OK, wrote 43030282 bytes, ratio=0.489
03 - Communications #10.wav: Verify OK, wrote 80941271 bytes, ratio=0.555
04 - Preview.wav: Verify OK, wrote 25134617 bytes, ratio=0.660
05 - Communications #11 Part 1.wav: Verify OK, wrote 116982484 bytes, ratio=0.708
06 - Communications #11 Part 2.wav: Verify OK, wrote 135000567 bytes, ratio=0.699
 
Содержание индексной карты (.CUE)
REM GENRE Jazz
REM DATE 1968
REM DISCID 44114706
REM COMMENT "ExactAudioCopy v0.99pb4"
PERFORMER "Jazz Composer's Orchestra"
TITLE "Communications"
FILE "01 - Communications #8.wav" WAVE
TRACK 01 AUDIO
TITLE "Communications #8"
PERFORMER "Jazz Composer's Orchestra"
PREGAP 00:00:33
INDEX 01 00:00:00
TRACK 02 AUDIO
TITLE "Communications #9"
PERFORMER "Jazz Composer's Orchestra"
INDEX 00 14:04:09
FILE "02 - Communications #9.wav" WAVE
INDEX 01 00:00:00
TRACK 03 AUDIO
TITLE "Communications #10"
PERFORMER "Jazz Composer's Orchestra"
INDEX 00 08:14:26
FILE "03 - Communications #10.wav" WAVE
INDEX 01 00:00:00
TRACK 04 AUDIO
TITLE "Preview"
PERFORMER "Jazz Composer's Orchestra"
INDEX 00 13:42:26
FILE "04 - Preview.wav" WAVE
INDEX 01 00:00:00
TRACK 05 AUDIO
TITLE "Communications #11 Part 1"
PERFORMER "Jazz Composer's Orchestra"
INDEX 00 03:30:16
FILE "05 - Communications #11 Part 1.wav" WAVE
INDEX 01 00:00:00
TRACK 06 AUDIO
TITLE "Communications #11 Part 2"
PERFORMER "Jazz Composer's Orchestra"
INDEX 00 15:32:59
FILE "06 - Communications #11 Part 2.wav" WAVE
INDEX 01 00:00:00
 
Состав
* Gato Barbieri – tenor saxophone
* Carla Bley – piano
* Ron Carter – bass
* Don Cherry – cornet
* Larry Coryell – guitar
* Andrew Cyrille – drums
* Richard Davis – bass
* Eddie Gomez – bass
* Beaver Harris – drums
* Jimmy Knepper – trombone
* Steve Lacy – soprano saxophone
* Jimmy Lyons – alto saxophone
* Michael Mantler – conductor, producer, coordination, project coordinator
* Roswell Rudd – trombone
* Steve Swallow – bass
* Lew Tabackin – tenor saxophone
* Cecil Taylor – piano, liner notes
* Julius Watkins – French horn
* Howard Johnson – tuba
* Reggie Johnson – bass
* Steve Marcus – soprano saxophone
* Charles Davis – baritone saxophone
* Alan Silva – bass
* George Barrow – tenor saxophone
* Randy Brecker – flugelhorn
* Kent Carter – bass
* Bob Cunningham – bass
* Bob Donovan – alto saxophone
* Stephen Furtado – flugelhorn
* Al Gibbons – soprano saxophone
* Paul Goodman – engineer
* Charlie Haden – bass
* Paul Haines – liner notes
* Gene Hull – alto saxophone
* Jack Jeffers – bass trombone
* Lloyd Michels – flugelhorn
* Bob Northern – French horn
* Reggie Workman – bass
* Pharoah Sanders – tenor saxophone
* John Tchicai – saxophone
* Frank Wess – alto saxophone
* Don Cherry & Ed Blackwell – trumpet
* Timothy Marquand – liner notes
* Paul McDonough – artwork, cover design
другие релизы
Any questions -> support@pro-jazz.com. По всем вопросам пишите -> support@pro-jazz.com
05:16
118
Нет комментариев. Ваш будет первым!