Поиск

(free jazz) Don Cherry- Art Deco 1989, FLAC (tracks+.cue), lossless

(free jazz) Don Cherry- Art Deco 1989, FLAC (tracks+.cue), lossless
Треклист:

Don Cherry - Art Deco
Жанр:free jazz
Год выпуска: 1989
Формат: FLAC (tracks+.cue)
Битрейт аудио: lossless
Продолжительность:56:23
источнег:what.cd

tracks

1. Art Deco
2. Body and Soul
3. Maffy
4. Blessing
5. I've Grown Accustomed to Her Face
6. When Will the Blues Leave?
7. Bemsha Swing
8. Folk Medley
9. Passing
10. Compute


 
log
Exact Audio Copy V1.0 beta 3 from 29. August 2011
EAC extraction logfile from 1. November 2011, 3:30
Don Cherry / Art Deco
Used drive : MATSHITADVD-RAM UJ890AS Adapter: 0 ID: 1
Read mode : Secure
Utilize accurate stream : Yes
Defeat audio cache : Yes
Make use of C2 pointers : No
Read offset correction : 102
Overread into Lead-In and Lead-Out : No
Fill up missing offset samples with silence : Yes
Delete leading and trailing silent blocks : No
Null samples used in CRC calculations : Yes
Used interface : Native Win32 interface for Win NT & 2000
Gap handling : Appended to previous track
Used output format : User Defined Encoder
Selected bitrate : 1024 kBit/s
Quality : High
Add ID3 tag : No
Command line compressor : C:\Program Files (x86)\Exact Audio Copy\Flac\flac.exe
Additional command line options : -8 -V -T "ARTIST=%artist%" -T "TITLE=%title%" -T "ALBUM=%albumtitle%" -T "DATE=%year%" -T "TRACKNUMBER=%tracknr%" -T "GENRE=%genre%" -T "PERFORMER=%albuminterpret%" -T "COMPOSER=%composer%" %haslyrics%--tag-from-file=LYRICS="%lyricsfile%"%haslyrics% -T "ALBUMARTIST=%albumartist%" -T "ALBUM ARTIST=%albumartist%" -T "DISCNUMBER=%cdnumber%" -T "TOTALDISCS=%totalcds%" -T "TOTALTRACKS=%numtracks%" -T "COMMENT=%comment%" %source% -o %dest%
TOC of the extracted CD
Track | Start | Length | Start sector | End sector
---------------------------------------------------------
1 | 0:00.00 | 8:43.60 | 0 | 39284
2 | 8:43.60 | 7:12.65 | 39285 | 71749
3 | 15:56.50 | 6:32.40 | 71750 | 101189
4 | 22:29.15 | 9:42.72 | 101190 | 144911
5 | 32:12.12 | 0:42.05 | 144912 | 148066
6 | 32:54.17 | 2:45.70 | 148067 | 160511
7 | 35:40.12 | 5:36.48 | 160512 | 185759
8 | 41:16.60 | 3:04.57 | 185760 | 199616
9 | 44:21.42 | 6:56.28 | 199617 | 230844
10 | 51:17.70 | 5:04.72 | 230845 | 253716
Track 1
Filename D:\EAC\Don Cherry - Art Deco (1989) [FLAC]\01 - Art Deco.wav
Pre-gap length 0:00:02.00
Peak level 100.0 %
Extraction speed 1.7 X
Track quality 100.0 %
Test CRC 8A117464
Copy CRC 8A117464
Accurately ripped (confidence 3) [11C9A1B8] (AR v1)
Copy OK
Track 2
Filename D:\EAC\Don Cherry - Art Deco (1989) [FLAC]\02 - When Will the Blues Leave.wav
Pre-gap length 0:00:04.70
Peak level 92.6 %
Extraction speed 1.9 X
Track quality 100.0 %
Test CRC CDE20556
Copy CRC CDE20556
Accurately ripped (confidence 3) [FCBE327D] (AR v1)
Copy OK
Track 3
Filename D:\EAC\Don Cherry - Art Deco (1989) [FLAC]\03 - Body and Soul.wav
Pre-gap length 0:00:03.97
Peak level 91.2 %
Extraction speed 2.2 X
Track quality 100.0 %
Test CRC 3D51750D
Copy CRC 3D51750D
Accurately ripped (confidence 3) [ADB1C05A] (AR v1)
Copy OK
Track 4
Filename D:\EAC\Don Cherry - Art Deco (1989) [FLAC]\04 - Bemsha Swing.wav
Pre-gap length 0:00:02.60
Peak level 90.9 %
Extraction speed 2.3 X
Track quality 99.9 %
Test CRC 68C9A8D4
Copy CRC 68C9A8D4
Accurately ripped (confidence 3) [232EC8C2] (AR v1)
Copy OK
Track 5
Filename D:\EAC\Don Cherry - Art Deco (1989) [FLAC]\05 - Maffy.wav
Pre-gap length 0:00:03.69
Peak level 79.0 %
Extraction speed 1.4 X
Track quality 100.0 %
Test CRC 580A36C6
Copy CRC 580A36C6
Accurately ripped (confidence 3) [040FD556] (AR v1)
Copy OK
Track 6
Filename D:\EAC\Don Cherry - Art Deco (1989) [FLAC]\06 - Folk Medley.wav
Pre-gap length 0:00:02.66
Peak level 41.9 %
Extraction speed 2.3 X
Track quality 100.0 %
Test CRC FA6A39A3
Copy CRC FA6A39A3
Accurately ripped (confidence 3) [0F0B1B16] (AR v1)
Copy OK
Track 7
Filename D:\EAC\Don Cherry - Art Deco (1989) [FLAC]\07 - The Blessing.wav
Pre-gap length 0:00:03.42
Peak level 76.2 %
Extraction speed 2.4 X
Track quality 99.9 %
Test CRC 2DD1AE39
Copy CRC 2DD1AE39
Accurately ripped (confidence 3) [D06B41DC] (AR v1)
Copy OK
Track 8
Filename D:\EAC\Don Cherry - Art Deco (1989) [FLAC]\08 - Passing.wav
Pre-gap length 0:00:04.04
Peak level 71.8 %
Extraction speed 2.5 X
Track quality 100.0 %
Test CRC 82D7FAEE
Copy CRC 82D7FAEE
Accurately ripped (confidence 3) [2B8CBA81] (AR v1)
Copy OK
Track 9
Filename D:\EAC\Don Cherry - Art Deco (1989) [FLAC]\09 - I've Grown Accustomed to Your Face.wav
Pre-gap length 0:00:04.20
Peak level 86.6 %
Extraction speed 2.9 X
Track quality 100.0 %
Test CRC EA9E9E17
Copy CRC EA9E9E17
Accurately ripped (confidence 3) [D30B8250] (AR v1)
Copy OK
Track 10
Filename D:\EAC\Don Cherry - Art Deco (1989) [FLAC]\10 - Compute.wav
Pre-gap length 0:00:06.04
Peak level 97.5 %
Extraction speed 2.9 X
Track quality 100.0 %
Test CRC B59D61C3
Copy CRC B59D61C3
Accurately ripped (confidence 3) [7EFC7D27] (AR v1)
Copy OK
All tracks accurately ripped
No errors occurred
End of status report
---- CUETools DB Plugin V2.1.3
[CTDB TOCID: FWLmZVO70W3ok_OfZDhE1WMzbyg-] disk not present in database, Submit result: FWLmZVO70W3ok_OfZDhE1WMzbyg- has been uploaded
==== Log checksum C6BB117A5C532A1A59849CCD420A2A8113BD520BA38F42597B68964EF3543BF2 ====
 
cue
REM GENRE Jazz
REM DATE 1989
REM DISCID 980D360A
REM COMMENT "ExactAudioCopy v1.0b3"
FILE "01 - Art Deco.wav" WAVE
TRACK 01 AUDIO
INDEX 01 00:00:00
TRACK 02 AUDIO
INDEX 00 08:39:07
FILE "02 - When Will the Blues Leave.wav" WAVE
INDEX 01 00:00:00
TRACK 03 AUDIO
INDEX 00 07:08:67
FILE "03 - Body and Soul.wav" WAVE
INDEX 01 00:00:00
TRACK 04 AUDIO
INDEX 00 06:29:70
FILE "04 - Bemsha Swing.wav" WAVE
INDEX 01 00:00:00
TRACK 05 AUDIO
INDEX 00 09:39:20
FILE "05 - Maffy.wav" WAVE
INDEX 01 00:00:00
TRACK 06 AUDIO
INDEX 00 00:39:30
FILE "06 - Folk Medley.wav" WAVE
INDEX 01 00:00:00
TRACK 07 AUDIO
INDEX 00 02:42:38
FILE "07 - The Blessing.wav" WAVE
INDEX 01 00:00:00
TRACK 08 AUDIO
INDEX 00 05:32:45
FILE "08 - Passing.wav" WAVE
INDEX 01 00:00:00
TRACK 09 AUDIO
INDEX 00 03:00:42
FILE "09 - I've Grown Accustomed to Your Face.wav" WAVE
INDEX 01 00:00:00
TRACK 10 AUDIO
INDEX 00 06:50:25
FILE "10 - Compute.wav" WAVE
INDEX 01 00:00:00

другие релизы
Приватный:
Нет (DHT включён)
Размер:
296.65 Мб (311,055,913 байт) » файлов: 18
Участники:
0 раздают, 1 качают (1 участников всего)
Внешние участники:
7 раздают, 2 качают (9 участников всего) [ Обновить ]
Скорость:
355.70 Кб/c 0/c
No seeders - write a personal message to user M0p94ok. Нет сидеров - пишите личное сообщение пользователю M0p94ok.
03:11
50
Нет комментариев. Ваш будет первым!