Поиск

(Modern Creative, Avant-Garde Jazz) Sex Mob - Din of Inequity {Knitting Factory} - 1998, FLAC (tracks+.cue), lossless

(Modern Creative, Avant-Garde Jazz) Sex Mob - Din of Inequity {Knitting Factory} - 1998, FLAC (tracks+.cue), lossless
Треклист:
Sex Mob - "Din of Inequity" (1998)


Жанр: Modern Creative / Avant-Garde Jazz
Год выпуска диска: 1998
Производитель диска: USA
Аудио кодек: FLAC
Тип рипа: tracks+.cue
Битрейт аудио: lossless
Продолжительность: 54:32
1. Holiday of Briggan (4:02) (Steven Bernstein)
2. Sign 'O'The Times (5:54) (Prince)
3. House of the Rising Sun (7:09) (Huddie Ledbetter)
4. Goldfinger (4:20) (Leslie Bricusse)
5. Super Don (0:41) (Steven Bernstein)
6. Been It (4:33) (Peter Svensson - Nina Persson)
7. Come Sunday (3:09) (Duke Ellington)
8. Head check 2000 (4:05) (Steven Bernstein)
9. Roswell (1:05) (Steven Bernstein)
10. House of Peck (5:16) (Steven Bernstein)
11. Macarena (4:03) (A.Romero - R.Ruiz)
12. New Orleans (6:01) (Hoagie Carmichael)
13. Live and Let Die (4:02) (L.McCartney - P.McCartney)
All music arranged by Steven Bernstein.
Steven Bernstein - slide trumpet
Briggan Krauss - alto saxophone
Tony Scherr - acoustic bass
Kenny Wollesen - drums
with special guests:
John Medeski - Hammond B3 (tracks 2,3,10,11,13)
Adam Levy - guitar (tracks 2,3,6,10,11,13)
London McDaniels - guitar (tracks 2,11,13)
Columbia / Knitting Factory
(c)(p) 1998 Sony Music Entertainment Inc.
ck 69432
 
Резензия из журнала 'Джаз-квадрат'
Нормальный человек, взяв в руки диск группы “Sex Mob” (что значит «Сексуальная шайка» — еще то название!), да потом послушав, что на нем записано, должен сказать: «Черт знает что!» И он будет где-то прав. Первые минуты программы вызывают откровенное возмущение. Под аккомпанемент навязчивого баса труба явно то ли балуется, то ли издевается. Ни джазом, ни музыкой это назвать никак нельзя. Некоторое смущение вызывают только скользящие звуки в верхнем регистре — как известно, исполнение глиссандо на трубе подвластны только мастерам экстра-класса. Но вот вступает саксофон, и все переворачивается. Потому что «это», чему нет названия, звучит в идеальном унисоне. Значит получается, «это», что звучало в начале, было темой, раз они смогли «это» выучить.
А потом начинает звучать вкуснейший ритм-энд-блюз, с хаммондовским тембром электрооргана, перекликающимся с жесткой гитарой, опять с удивительными унисонами трубы и саксофона. И тут выясняется, что это один из хитов Принса, времен, когда он еще был тем самым Принсом. Оказывается, то, что поначалу принимается за баловство и издевку, просто высшая степень свободы — мелодической, гармонической, ритмической — и владения инструментом. И эта свобода существует в предельно четко и даже жестко организованном пространстве. Прекрасная ритм-секция, которую в некоторых композициях усиливают гитары и клавишные, такое пространство для трубы предоставляет.
Молодой нью-йоркский трубач Стивен Бернстайн (Steven Bernstein) уже успел завоевать себе репутацию ниспровергателя правил и устоев. Безусловно, он обладает оригинальнейшим музыкальным мышлением, и слушателю нужно некоторое время, чтобы привыкнуть к его способу излагать музыкальный материал. Но, постигнув его, можно получить огромнейшее удовольствие — именно от необычности. Нет, это еще не есть открытие нового джазового языка. Но, безусловно, — открытие нового, еще малоизученного диалекта.
Этот диск ждали долго, с предвкушением сюрприза: о проекте было объявлено заранее. И надежды оправдались. Совершенно великолепным оказался дуэт трубы Бернстайна с альт-саксофоном Бриггана Краусса (Briggan Krauss). В квартет вошли еще барабанщик Кенни Уоллесен (Kenny Wollesen) и контрабасист Тони Шерр (Toni Scherr).
Большая часть программы написана самим Бернстайном — это самые изощренные темы. Но еще более неожиданными становятся интерпретации тем известных. Кроме Принса, под руку “попались” Эллингтон, Ледбеттер, Кармайкл. Узнать их мудрено. Почему-то исполнителям приглянулась музыка из фильмов о Джеймсе Бонде. Присутствуют сразу две темы — из “Голдфингера” и “Живи и дай умереть”. Кстати, автор последней мелодии — сэр Пол Маккартни. Но подлинным шедевром стала версия хита прошлого сезона “Макарена”. Из попсового шлягера она превратилась в мрачноватый гимн, сыгранный в темпе траурного марша.
Мы читали столько историй, ставших уже легендами, о том, как Глен Миллер придумывал “кристал корус”, а Телониус Монк с друзьями изобретал боп. И невольно вставал вопрос: а что же осталось нашему поколению? Неужели в джазе уже все придумано? Так вот вам, получите! И думайте, как с этим разобраться.
Юрий БУДЬКО
http://www.nestor.minsk.by/jz/cd/1997/11/1114.html
 
EAC extraction logfile from 18. August 2008, 22:37
Exact Audio Copy V0.99 prebeta 4 from 23. January 2008
EAC extraction logfile from 18. August 2008, 22:37
Sex Mob / Din of Inequity
Used drive : PLEXTOR DVDR PX-760A Adapter: 4 ID: 0
Read mode : Secure
Utilize accurate stream : Yes
Defeat audio cache : Yes
Make use of C2 pointers : No
Read offset correction : 30
Overread into Lead-In and Lead-Out : Yes
Fill up missing offset samples with silence : Yes
Delete leading and trailing silent blocks : No
Null samples used in CRC calculations : Yes
Used interface : Native Win32 interface for Win NT & 2000
Gap handling : Appended to previous track
Used output format : User Defined Encoder
Selected bitrate : 128 kBit/s
Quality : High
Add ID3 tag : No
Command line compressor : C:\Program Files\FLAC\flac.exe
Additional command line options : -8 -V -T "ARTIST=%a" -T "TITLE=%t" -T "ALBUM=%g" -T "DATE=%y" -T "TRACKNUMBER=%n" -T "GENRE=%m" -T "COMMENT=EAC FLAC -8" %s
TOC of the extracted CD
Track | Start | Length | Start sector | End sector
---------------------------------------------------------
1 | 0:00.00 | 4:04.67 | 0 | 18366
2 | 4:04.67 | 5:54.28 | 18367 | 44944
3 | 9:59.20 | 7:09.42 | 44945 | 77161
4 | 17:08.62 | 4:21.45 | 77162 | 96781
5 | 21:30.32 | 0:40.63 | 96782 | 99844
6 | 22:11.20 | 4:35.17 | 99845 | 120486
7 | 26:46.37 | 3:09.50 | 120487 | 134711
8 | 29:56.12 | 4:05.23 | 134712 | 153109
9 | 34:01.35 | 1:06.30 | 153110 | 158089
10 | 35:07.65 | 5:16.25 | 158090 | 181814
11 | 40:24.15 | 4:04.15 | 181815 | 200129
12 | 44:28.30 | 6:01.55 | 200130 | 227259
13 | 50:30.10 | 4:02.25 | 227260 | 245434
Track 1
Filename H:\Sex Mob - Din of Inequity (1998) [FLAC]\01 - Holiday of Briggan.wav
Pre-gap length 0:00:02.00
Peak level 99.4 %
Track quality 100.0 %
Test CRC 9209DBAC
Copy CRC 9209DBAC
Cannot be verified as accurate (confidence 3) [93334E13], AccurateRip returned [FA7BA97E]
Copy OK
Track 2
Filename H:\Sex Mob - Din of Inequity (1998) [FLAC]\02 - Sign 'O' The Times.wav
Pre-gap length 0:00:01.07
Peak level 99.4 %
Track quality 100.0 %
Test CRC D4054F53
Copy CRC D4054F53
Cannot be verified as accurate (confidence 3) [9F413911], AccurateRip returned [475D55D0]
Copy OK
Track 3
Filename H:\Sex Mob - Din of Inequity (1998) [FLAC]\03 - House of The Rising Sun.wav
Peak level 99.4 %
Track quality 100.0 %
Test CRC BDC29201
Copy CRC BDC29201
Cannot be verified as accurate (confidence 3) [2B572F12], AccurateRip returned [C9F4AC09]
Copy OK
Track 4
Filename H:\Sex Mob - Din of Inequity (1998) [FLAC]\04 - Goldfinger.wav
Pre-gap length 0:00:00.67
Peak level 99.4 %
Track quality 100.0 %
Test CRC B5390D9F
Copy CRC B5390D9F
Cannot be verified as accurate (confidence 3) [7E22C64C], AccurateRip returned [B2FCD2B0]
Copy OK
Track 5
Filename H:\Sex Mob - Din of Inequity (1998) [FLAC]\05 - Super Don.wav
Pre-gap length 0:00:00.47
Peak level 94.2 %
Track quality 99.7 %
Test CRC 7DD7B5CC
Copy CRC 7DD7B5CC
Cannot be verified as accurate (confidence 3) [4E119F74], AccurateRip returned [E6F1F32E]
Copy OK
Track 6
Filename H:\Sex Mob - Din of Inequity (1998) [FLAC]\06 - Been It.wav
Peak level 99.4 %
Track quality 100.0 %
Test CRC A8B0C3D0
Copy CRC A8B0C3D0
Cannot be verified as accurate (confidence 3) [886C2F9C], AccurateRip returned [49B69444]
Copy OK
Track 7
Filename H:\Sex Mob - Din of Inequity (1998) [FLAC]\07 - Come Sunday.wav
Pre-gap length 0:00:01.62
Peak level 96.2 %
Track quality 100.0 %
Test CRC 5CA93357
Copy CRC 5CA93357
Cannot be verified as accurate (confidence 3) [34196885], AccurateRip returned [B315C1F1]
Copy OK
Track 8
Filename H:\Sex Mob - Din of Inequity (1998) [FLAC]\08 - Head check 2000.wav
Peak level 99.4 %
Track quality 100.0 %
Test CRC 520FCE39
Copy CRC 520FCE39
Cannot be verified as accurate (confidence 3) [0654A182], AccurateRip returned [B0948DE1]
Copy OK
Track 9
Filename H:\Sex Mob - Din of Inequity (1998) [FLAC]\09 - Roswell.wav
Pre-gap length 0:00:00.35
Peak level 99.4 %
Track quality 99.8 %
Test CRC DFE4B333
Copy CRC DFE4B333
Cannot be verified as accurate (confidence 3) [085ABB17], AccurateRip returned [A914A3E1]
Copy OK
Track 10
Filename H:\Sex Mob - Din of Inequity (1998) [FLAC]\10 - House of Peck.wav
Pre-gap length 0:00:00.45
Peak level 99.4 %
Track quality 100.0 %
Test CRC 2F6E1E97
Copy CRC 2F6E1E97
Cannot be verified as accurate (confidence 3) [0362B174], AccurateRip returned [2AE9793E]
Copy OK
Track 11
Filename H:\Sex Mob - Din of Inequity (1998) [FLAC]\11 - Macarena.wav
Peak level 99.4 %
Track quality 100.0 %
Test CRC 45952CBB
Copy CRC 45952CBB
Cannot be verified as accurate (confidence 3) [83AC2B1A], AccurateRip returned [256B6DEF]
Copy OK
Track 12
Filename H:\Sex Mob - Din of Inequity (1998) [FLAC]\12 - New Orleans.wav
Pre-gap length 0:00:01.33
Peak level 99.4 %
Track quality 100.0 %
Test CRC DE8AE180
Copy CRC DE8AE180
Cannot be verified as accurate (confidence 2) [DAB16F3E], AccurateRip returned [CF9B1D00]
Copy OK
Track 13
Filename H:\Sex Mob - Din of Inequity (1998) [FLAC]\13 - Live and Let Die.wav
Pre-gap length 0:00:00.48
Peak level 99.4 %
Track quality 100.0 %
Test CRC 2FA1D66C
Copy CRC 2FA1D66C
Cannot be verified as accurate (confidence 3) [D8369709], AccurateRip returned [DFC19254]
Copy OK
No tracks could be verified as accurate
You may have a different pressing from the one(s) in the database
No errors occurred
End of status report
Собственный рип с оригинального диска.
В комплекте полный набор сканов PNG/300dpi.
Приватный:
Нет (DHT включён)
Размер:
377.72 Мб (396,063,073 байт) » файлов: 24
Участники:
0 раздают, 0 качают (0 участников всего)
Внешние участники:
2 раздают, 1 качают (3 участников всего) [ Обновить ]
No seeders - write a personal message to user M0p94ok. Нет сидеров - пишите личное сообщение пользователю M0p94ok.
03:12
49
Нет комментариев. Ваш будет первым!