Поиск

(Free Jazz, Avantgarde) Zu - The Way Of The Animal Powers - 2005, FLAC (image+.cue), lossless

(Free Jazz, Avantgarde) Zu - The Way Of The Animal Powers - 2005, FLAC (image+.cue), lossless
Треклист:
Zu - The Way Of The Animal Powers
Жанр: Free Jazz, Avantgarde
Год выпуска диска: 2005
Производитель диска: Italy, Xeng
Аудио кодек: FLAC
Тип рипа: image+.cue
Битрейт аудио: lossless
Продолжительность: 26:04
Трэклист:
1. Tom Araya Is Our Elvis
2. Anatomy Of A Lost Battle
3. Shape Shifting
4. The Aftermath
5. Things Fall Apart
6. The Witch Herbalist Of The Remote Town
7. Farewell To The Species
8. A Fortress Against Shadows
9. Every Seagull Knows
 
Exact Audio Copy
Exact Audio Copy V0.99 prebeta 3 from 28. July 2007
Отчёт EAC об извлечении, выполненном 21. августа 2008, 22:05
Zu / The Way Of The Animal Powers
Дисковод: TSSTcorpCD/DVDW SH-S182D Adapter: 4 ID: 0
Режим чтения : Достоверность
Использование точного потока : Да
Отключение кэша аудио : Да
Использование указателей C2 : Нет
Коррекция смещения при чтении : 6
Способность читать области Lead-in и Lead-out : Нет
Заполнение пропущенных сэмплов тишиной : Да
Удаление блоков с тишиной в начале и конце : Нет
При вычислениях CRC использовались нулевые сэмплы : Да
Интерфейс : Встроенный Win32-интерфейс для Win NT/2000
Выходной формат : Пользовательский кодировщик
Выбранный битрейт : 768 kBit/s
Качество : Высокий
Добавление ID3-тэга : Нет
Утилита сжатия : C:\Program Files\Exact Audio Copy\FLAC\FLAC.EXE
Дополнительные параметры : -6 -V -T "ARTIST=%a" -T "TITLE=%t" -T "ALBUM=%g" -T "DATE=%y" -T "TRACKNUMBER=%n" -T "GENRE=%m" -T "COMMENT=%e" %s -o %d
TOC извлечённого CD
Трек | Старт | Длительность | Начальный сектор | Конечный сектор
---------------------------------------------------------------------
1 | 0:00.00 | 2:46.72 | 0 | 12521
2 | 2:46.72 | 3:03.63 | 12522 | 26309
3 | 5:50.60 | 3:41.33 | 26310 | 42917
4 | 9:32.18 | 2:10.54 | 42918 | 52721
5 | 11:42.72 | 2:54.71 | 52722 | 65842
6 | 14:37.68 | 2:38.00 | 65843 | 77692
7 | 17:15.68 | 2:56.42 | 77693 | 90934
8 | 20:12.35 | 3:13.25 | 90935 | 105434
9 | 23:25.60 | 2:37.68 | 105435 | 117277
Характеристики диапазона извлечения и сообщения об ошибках
Выбранный диапазон
Имя файла D:\TorMus\Zu - 2005. The Way Of The Animal Powers\Zu - The Way Of The Animal Powers.wav
Пиковый уровень 96.6 %
Качество диапазона 99.9 %
CRC копии B78E550B
Копирование... OK
Ошибок не произошло
Конец отчёта
Приватный:
Нет (DHT включён)
Размер:
151.34 Мб (158,689,056 байт) » файлов: 4
Участники:
0 раздают, 0 качают (0 участников всего)
Внешние участники:
5 раздают, 2 качают (7 участников всего) [ Обновить ]
No seeders - write a personal message to user M0p94ok. Нет сидеров - пишите личное сообщение пользователю M0p94ok.
03:10
52
Нет комментариев. Ваш будет первым!