Поиск

(Avant-garde / Experimental music / Free improvisation) No Spaghetti Edition - Real Time Satellite Data - 2003, FLAC (image+.cue), lossless

(Avant-garde / Experimental music / Free improvisation) No Spaghetti Edition - Real Time Satellite Data - 2003, FLAC (image+.cue), lossless
Треклист:
No Spaghetti Edition - Real Time Satellite Data
Жанр: Avant-garde / Experimental music / Free improvisation
Год выпуска диска: 2003
Производитель диска: Norway
Аудио кодек: FLAC
Тип рипа: image+.cue
Битрейт аудио: lossless
Продолжительность: 1:12:31
Xavier Charles clarinet, harmonica
Rhodri Davies harp
Michel Doneda reeds
Axel Dörner trumpet, electronics
Ivar Grydeland acoustic guitar, banjo
Tonny Kluften double bass
Andrea Neumann inside piano, electronics
Ingar Zach percussion
Soon, Too Soon
In Gasping Death
Micro Warehouse
Micro Luggage
Micro Control Journal
Mini Systems
Macro Photography
Macro Investors
Super Systems
Who Is Changing Places
Super Position
Super Opposition
 
The Wire Review
«Sofa music isn´t music for the sofa. It´s tough, edge of seat stuff that demands and repays a certain level of close attention. The No Spaghetti Edition record is as sparing of its means as possible given the density of music it eventually delivers. Tiny sounds and almost subliminal textures are all you hear at first, impossible to separate from the responsive acoustic of the Kampen Church in Oslo where it was recorded. The sonic texture slowly busies until the full ensemble is generating complex crescendos that have a mournful and urgent quality, almost Levantine, the kind of thing you might have heard on small West Bank stations at the time of the Intifada where mics were left open over records, capturing the sound of conflict outside while the music sailed out regardless.
It´s an odd analogy, since the personnel, the provenance and the basic soundwworld of No Spaghetti Edition are so unmistakable Nordic. The sources include brass, reeds, piano, bass and percussion, so the connection to an orthodox jazz line-up is established. Mostly, though, instrumental sounds are only minimally inflected, reliant on extended techniques of one sort and another and bathed in electronics. It´s difficult to separate the players in what is intentionally a very even mix, but Axel Dörner´s trumpet, Xavier Charles´s clarinet and harmonica, and Michel Doneda´s high-end saxophones (just soprano and sopranino) stand out. The other players are harder to locate: Andrea Neumann works inside the piano; Rhodri Davies´s harp sounds are light and shifting, guitarist Ivar Grydeland could almost be a zither player, while bassist Tonny Kluften and percussionist Ingar Zach eschew rhythm for abstract metres that are hinted at rather than delivered. The record requires patience. The semantics of its early passages only become clear on a second hearing, almost like a long German sentence where one has to wait an age for the key verb.
Grydeland and Kluften are the common factors on the trio record, which is graced by the wonderful percussionist Paul Lovens. His mastery of this kind of set has rarely been so clearly demonstrated. He is effortlessly musical, wheter playing long sweeps of cymbal tones or constructing staccato tunes elsewhere on his kit. As on Real Time Satellite Data, Grydeland doubles on the banjo and gives its husky demotic a whole new significance. There are sections on the long track three which might almost be folk music, Levantine again or some extreme far edge of flamenco. It´s absolutely riveting music. Kluften isn´t always as prominent as one might expect, but his contributions are subtle and perfectly placed. I´ve heard few more convincing Improv records this year.»
-- Brian Morton, The Wire
 
Jazz Review
This enterprising, Norwegian avant-garde record label highlights the budding Scandinavian improvisational scene, along with artists from France and other regions of the world. This release features an octet, including hornists who divide their time using electronics. Meanwhile, harpist Rhodrie Davies, percussionist Ingar Zach and other improvising luminaries contribute mightily to this divergent production.
Given the album title, the musicians do indeed convey an alien transmission of sorts via their loosely enacted, and largely effective bonding processes. You’ll hear transient motifs amid contrasting tonalities via a somewhat, contracting ebb and flow. Essentially, this recording is awash with daintily articulated surprises, translating into multihued elements of expressionistic behavior. They raise the pitch and momentum in spots, however the strange sounds and fleeting exchanges are that of a hi-tech world, with nods to past experimentations. Some might call it free jazz or science fiction. But it’s all up to the listeners’ emotional involvement and scope of imaginative powers. Here, the asymmetrical parts of the big picture pass by in what seems like nanoseconds, yet the overall flow moves forward at a comprehensible pace. (Recommended…)
-- Glenn Astarita, Jazz Review

 
EAC Report
Exact Audio Copy V0.99 prebeta 4 from 23. January 2008
EAC extraction logfile from 25. July 2008, 21:49
No Spaghetti Edition / Real Time Satellite Data
Used drive : TSSTcorpCD/DVDW SH-S182M Adapter: 2 ID: 0
Read mode : Secure
Utilize accurate stream : Yes
Defeat audio cache : Yes
Make use of C2 pointers : No
Read offset correction : 6
Overread into Lead-In and Lead-Out : No
Fill up missing offset samples with silence : Yes
Delete leading and trailing silent blocks : No
Null samples used in CRC calculations : No
Used interface : Installed external ASPI interface
Used output format : User Defined Encoder
Selected bitrate : 1024 kBit/s
Quality : High
Add ID3 tag : No
Command line compressor : C:\Program Files\Exact Audio Copy\FLAC\FLAC.EXE
Additional command line options : -6 -V -T "ARTIST=%a" -T "TITLE=%t" -T "ALBUM=%g" -T "DATE=%y" -T "TRACKNUMBER=%n" -T "GENRE=%m" -T "COMMENT=%e" %s -o %d
TOC of the extracted CD
Track | Start | Length | Start sector | End sector
---------------------------------------------------------
1 | 0:00.00 | 3:28.31 | 0 | 15630
2 | 3:28.31 | 20:53.04 | 15631 | 109609
3 | 24:21.35 | 1:06.32 | 109610 | 114591
4 | 25:27.67 | 3:22.26 | 114592 | 129767
5 | 28:50.18 | 0:56.67 | 129768 | 134034
6 | 29:47.10 | 1:35.29 | 134035 | 141188
7 | 31:22.39 | 0:40.24 | 141189 | 144212
8 | 32:02.63 | 1:56.18 | 144213 | 152930
9 | 33:59.06 | 1:57.20 | 152931 | 161725
10 | 35:56.26 | 30:16.56 | 161726 | 297981
11 | 66:13.07 | 3:03.33 | 297982 | 311739
12 | 69:16.40 | 3:14.72 | 311740 | 326361
Range status and errors
Selected range
Filename F:\z\No Spaghetti Edition - Real Time Satellite Data.wav
Peak level 97.7 %
Range quality 100.0 %
Copy CRC 749C6EFB
Copy OK
No errors occurred
AccurateRip summary
Track 1 not present in database
Track 2 not present in database
Track 3 not present in database
Track 4 not present in database
Track 5 not present in database
Track 6 not present in database
Track 7 not present in database
Track 8 not present in database
Track 9 not present in database
Track 10 not present in database
Track 11 not present in database
Track 12 not present in database
None of the tracks are present in the AccurateRip database
End of status report

Приватный:
Нет (DHT включён)
Размер:
321.77 Мб (337,401,708 байт) » файлов: 5
Участники:
0 раздают, 0 качают (0 участников всего)
Внешние участники:
3 раздают, 1 качают (4 участников всего) [ Обновить ]
No seeders - write a personal message to user M0p94ok. Нет сидеров - пишите личное сообщение пользователю M0p94ok.
03:09
68
Нет комментариев. Ваш будет первым!