Поиск

(Avantgarde Jazz, Free Jazz) Crispell/Brotzmann/Drake - Hyperion(recorded Downtown Jazz Festival Toronto, June 25. 1992 - 1995, FLAC (image+.cue), lossless

(Avantgarde Jazz, Free Jazz) Crispell/Brotzmann/Drake - Hyperion(recorded Downtown Jazz Festival Toronto, June 25. 1992 - 1995, FLAC (image+.cue), lossless
Треклист:
Crispell/Brotzmann/Drake - Hyperion(recorded Downtown Jazz Festival Toronto, June 25. 1992
Жанр: Avantgarde Jazz, Free Jazz
Год выпуска диска: 1995
Производитель диска: USA (Music and Arts)
Аудио кодек: FLAC
Тип рипа: image+.cue
Битрейт аудио: lossless
Продолжительность: 49:22
Трэклист:
1. Hyperion I - 20:22
2. Hyperion II - 13:36
3.Hyperion III - 15:21
Marilyn Crispell - Piano
Peter Brotzmann - Clarinet, Saxophone, Performer, Tarogato
Hamid Drake - Drums, Hand Drums
Доп. информация: Exact Audio Copy V0.99 prebeta 4 from 23. January 2008
 
скрытый текст
Отчёт EAC об извлечении, выполненном 20. августа 2008, 23:46
Crispell/Brotzmann/Drake / Hyperion
Дисковод: Optiarc DVD RW AD-7203A Adapter: 0 ID: 0
Режим чтения : Достоверность
Использование точного потока : Да
Отключение кэша аудио : Да
Использование указателей C2 : Нет
Коррекция смещения при чтении : 48
Способность читать области Lead-in и Lead-out : Нет
Заполнение пропущенных сэмплов тишиной : Да
Удаление блоков с тишиной в начале и конце : Нет
При вычислениях CRC использовались нулевые сэмплы : Нет
Интерфейс : Установленный внешний ASPI-интерфейс
Выходной формат : Внутренние WAV-операции
Формат сэмплов : 44.100 Гц; 16 бит; стерео
TOC извлечённого CD
Трек | Старт | Длительность | Начальный сектор | Конечный сектор
---------------------------------------------------------------------
1 | 0:00.00 | 20:21.65 | 0 | 91639
2 | 20:21.65 | 13:36.70 | 91640 | 152909
3 | 33:58.60 | 15:21.55 | 152910 | 222039
Характеристики диапазона извлечения и сообщения об ошибках
Выбранный диапазон
Имя файла D:\Мои документы\Torrents\Crispell Brotzmann Drake - Hyperion.wav
Пиковый уровень 81.2 %
Качество диапазона 100.0 %
CRC копии 3AC4F764
Копирование... OK
Ошибок не произошло
Конец отчёта
Приватный:
Нет (DHT включён)
Размер:
207.93 Мб (218,025,529 байт) » файлов: 3
Участники:
0 раздают, 0 качают (0 участников всего)
Внешние участники:
1 раздают, 0 качают (1 участников всего) [ Обновить ]
No seeders - write a personal message to user M0p94ok. Нет сидеров - пишите личное сообщение пользователю M0p94ok.
03:09
70
Нет комментариев. Ваш будет первым!