Поиск

(Free Jazz) Charles Gayle Quartet - More Live at the Knitting Factory February, 1993 Double CD - 1993

(Free Jazz) Charles Gayle Quartet - More Live at the Knitting Factory February, 1993 Double CD - 1993
Треклист:
Charles Gayle Quartet - More Live at the Knitting Factory February, 1993 Double CD
Жанр: Free Jazz
Год выпуска диска: 1993
Производитель диска: NY (Knitting Factory)
Продолжительность: 1CD 68:44 / 2 CD 71:10 = 139:54
Трэклист:
1CD
1. Charles Gayle - Sealed Books (23:17)
2. Charles Gayle - Take Refuge (24:59)
3. Charles Gayle - Covenants (9:23)
4. Charles Gayle - Most High (11:02)
2 CD
1. Charles Gayle Quartet - Deliverance (9:46)
2. Charles Gayle Quartet - Sanctification (25:05)
3. Charles Gayle Quartet - Living Waters (16:31)
4. Charles Gayle Quartet - Newness Of Life (8:23)
5. Charles Gayle Quartet - Gifts (11:21)
Charles Gayle - Violin, Clarinet (Bass), Sax (Tenor)
Vattel Cherry - Bass
William Parker - Bass, Violin, Cello
Michael Wimberly - Drums (CD1)
Marc Edwards - Drums (CD2)
Доп. информация:
Exact Audio Copy V0.99 prebeta 4 from 23. January 2008
 
скрытый текст
Отчёт EAC об извлечении, выполненном 20. августа 2008, 19:29 CD1
Charles Gayle / More Live
Дисковод: Optiarc DVD RW AD-7203A Adapter: 0 ID: 0
Режим чтения : Достоверность
Использование точного потока : Да
Отключение кэша аудио : Да
Использование указателей C2 : Нет
Коррекция смещения при чтении : 48
Способность читать области Lead-in и Lead-out : Нет
Заполнение пропущенных сэмплов тишиной : Да
Удаление блоков с тишиной в начале и конце : Нет
При вычислениях CRC использовались нулевые сэмплы : Нет
Интерфейс : Установленный внешний ASPI-интерфейс
Выходной формат : Внутренние WAV-операции
Формат сэмплов : 44.100 Гц; 16 бит; стерео
TOC извлечённого CD
Трек | Старт | Длительность | Начальный сектор | Конечный сектор
---------------------------------------------------------------------
1 | 0:00.00 | 23:17.30 | 0 | 104804
2 | 23:17.30 | 24:59.57 | 104805 | 217286
3 | 48:17.12 | 9:23.15 | 217287 | 259526
4 | 57:40.27 | 11:02.05 | 259527 | 309181
Характеристики диапазона извлечения и сообщения об ошибках
Выбранный диапазон
Имя файла D:\Мои документы\Torrents\Charles Gayle - More Live.wav
Пиковый уровень 100.0 %
Качество диапазона 100.0 %
CRC копии 69E68FD4
Копирование... OK
Ошибок не произошло
Конец отчёта
Exact Audio Copy V0.99 prebeta 4 from 23. January 2008
 
скрытый текст
Отчёт EAC об извлечении, выполненном 20. августа 2008, 20:10 CD2
Charles Gayle Quartet / More Live
Дисковод: Optiarc DVD RW AD-7203A Adapter: 0 ID: 0
Режим чтения : Достоверность
Использование точного потока : Да
Отключение кэша аудио : Да
Использование указателей C2 : Нет
Коррекция смещения при чтении : 48
Способность читать области Lead-in и Lead-out : Нет
Заполнение пропущенных сэмплов тишиной : Да
Удаление блоков с тишиной в начале и конце : Нет
При вычислениях CRC использовались нулевые сэмплы : Нет
Интерфейс : Установленный внешний ASPI-интерфейс
Выходной формат : Внутренние WAV-операции
Формат сэмплов : 44.100 Гц; 16 бит; стерео
TOC извлечённого CD
Трек | Старт | Длительность | Начальный сектор | Конечный сектор
---------------------------------------------------------------------
1 | 0:00.00 | 9:46.45 | 0 | 43994
2 | 9:46.45 | 25:05.40 | 43995 | 156909
3 | 34:52.10 | 16:31.17 | 156910 | 231251
4 | 51:23.27 | 8:23.05 | 231252 | 268981
5 | 59:46.32 | 11:21.48 | 268982 | 320104
Характеристики диапазона извлечения и сообщения об ошибках
Выбранный диапазон
Имя файла D:\Мои документы\Torrents\Charles Gayle Quartet - More Live.wav
Пиковый уровень 100.0 %
Качество диапазона 100.0 %
CRC копии F69BAE93
Копирование... OK
Ошибок не произошло
Конец отчёта
Приватный:
Нет (DHT включён)
Размер:
773.87 Мб (811,463,686 байт) » файлов: 6
Участники:
0 раздают, 0 качают (0 участников всего)
Внешние участники:
2 раздают, 1 качают (3 участников всего) [ Обновить ]
No seeders - write a personal message to user M0p94ok. Нет сидеров - пишите личное сообщение пользователю M0p94ok.
03:08
70
Нет комментариев. Ваш будет первым!