Поиск

(Free Jazz, Free Improvisation) Frank Gratkowski, Misha Mengelberg - Frank Gratkowski Vis-A-Vis Misha Mengelberg - 2006 - 2006, FLAC (image+.cue), lossless

(Free Jazz, Free Improvisation) Frank Gratkowski, Misha Mengelberg - Frank Gratkowski Vis-A-Vis Misha Mengelberg - 2006 - 2006, FLAC (image+.cue), lossless
Треклист:
Frank Gratkowski, Misha Mengelberg - Frank Gratkowski Vis-A-Vis Misha Mengelberg - 2006
Жанр: Free Jazz, Free Improvisation
Год выпуска диска: 2006
Производитель диска: UK (LEO Records)
Аудио кодек: FLAC
Тип рипа: image+.cue
Битрейт аудио: lossless
Продолжительность: 67:57
Трэклист:
1. Frank Gratkowski, Misha Mengelberg - Geburtstags Mix (4:36)
2. Frank Gratkowski, Misha Mengelberg - Gehackter Preis Mix (9:37)
3. Frank Gratkowski, Misha Mengelberg - Mix Digestiv (13:03)
4. Frank Gratkowski, Misha Mengelberg - Mix Vis A Vis (16:18)
5. Frank Gratkowski, Misha Mengelberg - Mix Fraktal (10:22)
6. Frank Gratkowski, Misha Mengelberg - Mix And Match (13:56)
Frank Gratkowski - Clarinet, Clarinet (Bass), Clarinet (Contrabass), Sax (Alto)
Misha Mengelberg - Piano
Доп. информация: Exact Audio Copy V0.99 prebeta 4 from 23. January 2008
 
скрытый текст
Отчёт EAC об извлечении, выполненном 19. августа 2008, 20:23
Frank Gratkowski/Misha Mengelberg / Frank Gratkowski Vis-A-Vis Misha Mengelberg
Дисковод: Optiarc DVD RW AD-7203A Adapter: 0 ID: 0
Режим чтения : Достоверность
Использование точного потока : Да
Отключение кэша аудио : Да
Использование указателей C2 : Нет
Коррекция смещения при чтении : 48
Способность читать области Lead-in и Lead-out : Нет
Заполнение пропущенных сэмплов тишиной : Да
Удаление блоков с тишиной в начале и конце : Нет
При вычислениях CRC использовались нулевые сэмплы : Нет
Интерфейс : Установленный внешний ASPI-интерфейс
Выходной формат : Внутренние WAV-операции
Формат сэмплов : 44.100 Гц; 16 бит; стерео
TOC извлечённого CD
Трек | Старт | Длительность | Начальный сектор | Конечный сектор
---------------------------------------------------------------------
1 | 0:00.00 | 4:36.46 | 0 | 20745
2 | 4:36.46 | 9:37.50 | 20746 | 64070
3 | 14:14.21 | 13:03.33 | 64071 | 122828
4 | 27:17.54 | 16:18.17 | 122829 | 196195
5 | 43:35.71 | 10:22.58 | 196196 | 242903
6 | 53:58.54 | 13:56.50 | 242904 | 305653
Характеристики диапазона извлечения и сообщения об ошибках
Выбранный диапазон
Имя файла D:\Мои документы\Torrents\Frank Gratkowski Vis-A-Vis Misha Mengelberg.wav
Пиковый уровень 100.0 %
Качество диапазона 100.0 %
CRC копии 027C179D
Копирование... OK
Ошибок не произошло
Конец отчёта
Приватный:
Нет (DHT включён)
Размер:
339.13 Мб (355,599,866 байт) » файлов: 3
Участники:
0 раздают, 0 качают (0 участников всего)
Внешние участники:
5 раздают, 1 качают (6 участников всего) [ Обновить ]
No seeders - write a personal message to user M0p94ok. Нет сидеров - пишите личное сообщение пользователю M0p94ok.
03:07
63
Нет комментариев. Ваш будет первым!