Вы используете незарегистрированную версию компонента "Вкладки"!

Поиск

(free jazz) Dewey Redman - Musics (1979, OJC 1995), FLAC (tracks+.cue), lossless

Треклист:


Dewey Redman - Musics (1979, OJC 1995)

Жанр: free jazz
Год выпуска: 1979
Издатель (лейбл):1995, Original Jazz Classics / OJCCD-1860-2
Формат: FLAC (tracks+.cue)
Битрейт аудио: lossless
Продолжительность43`08
Источник: what.cd, kvolik27
Dewey Redman-Tenor,Musette,Harp,Vocal;
Fred Simmons-Piano,Cowbell;
Mark Helias-Bass;
Eddie Moore-Drums,Percussion,Saw,Vocal.

tracks

1 Need To Be 10:11
2 The Virgin Strike (March) 5:35
3 Alone Again (Naturally) 6:19
4 Unknown Tongue 9:06
5 One Beautiful Day 5:36
6 Daystar Nightlight 6:04


 
.log
Exact Audio Copy V1.0 beta 3 from 29. August 2011
EAC extraction logfile from 6. August 2012, 22:55
Dewey Redman / Musics
Used drive : PLEXTOR CD-R PX-W2410A Adapter: 2 ID: 0
Read mode : Secure
Utilize accurate stream : Yes
Defeat audio cache : Yes
Make use of C2 pointers : No
Read offset correction : 98
Overread into Lead-In and Lead-Out : No
Fill up missing offset samples with silence : Yes
Delete leading and trailing silent blocks : No
Null samples used in CRC calculations : Yes
Used interface : Native Win32 interface for Win NT & 2000
Gap handling : Appended to previous track
Used output format : User Defined Encoder
Selected bitrate : 1024 kBit/s
Quality : High
Add ID3 tag : No
Command line compressor : C:\Program Files\Exact Audio Copy\FLAC\FLAC.EXE
Additional command line options : -8 -V -T "ARTIST=%artist%" -T "TITLE=%title%" -T "ALBUM=%albumtitle%" -T "DATE=%year%" -T "TRACKNUMBER=%tracknr%" -T "GENRE=%genre%" -T "PERFORMER=%albuminterpret%" -T "COMPOSER=%composer%" %haslyrics%--tag-from-file=LYRICS="%lyricsfile%"%haslyrics% -T "ALBUMARTIST=%albumartist%" -T "DISCNUMBER=%cdnumber%" -T "TOTALDISCS=%totalcds%" -T "TOTALTRACKS=%numtracks%" -T "COMMENT=%comment%" %source%
TOC of the extracted CD
Track | Start | Length | Start sector | End sector
---------------------------------------------------------
1 | 0:00.00 | 10:14.62 | 0 | 46111
2 | 10:14.62 | 5:37.03 | 46112 | 71389
3 | 15:51.65 | 6:24.57 | 71390 | 100246
4 | 22:16.47 | 9:08.03 | 100247 | 141349
5 | 31:24.50 | 5:38.00 | 141350 | 166699
6 | 37:02.50 | 6:04.67 | 166700 | 194066
Track 1
Filename X:\EAC\Dewey Redman - Musics (1978 OJC 1995) [FLAC]\01. Need To Be.wav
Pre-gap length 0:00:02.00
Peak level 85.5 %
Extraction speed 3.5 X
Track quality 99.9 %
Test CRC 9DED04B3
Copy CRC 9DED04B3
Track not present in AccurateRip database
Copy OK
Track 2
Filename X:\EAC\Dewey Redman - Musics (1978 OJC 1995) [FLAC]\02. The Virgin Strike.wav
Pre-gap length 0:00:02.25
Peak level 86.8 %
Extraction speed 3.7 X
Track quality 100.0 %
Test CRC 63CDB67C
Copy CRC 63CDB67C
Track not present in AccurateRip database
Copy OK
Track 3
Filename X:\EAC\Dewey Redman - Musics (1978 OJC 1995) [FLAC]\03. Alone Again.wav
Pre-gap length 0:00:01.15
Peak level 56.9 %
Extraction speed 3.5 X
Track quality 99.9 %
Test CRC 95CBD782
Copy CRC 95CBD782
Track not present in AccurateRip database
Copy OK
Track 4
Filename X:\EAC\Dewey Redman - Musics (1978 OJC 1995) [FLAC]\04. Unknown Tongue.wav
Pre-gap length 0:00:02.30
Peak level 89.1 %
Extraction speed 3.8 X
Track quality 100.0 %
Test CRC 66A3F136
Copy CRC 66A3F136
Track not present in AccurateRip database
Copy OK
Track 5
Filename X:\EAC\Dewey Redman - Musics (1978 OJC 1995) [FLAC]\05. One Beautiful Day.wav
Pre-gap length 0:00:00.55
Peak level 59.0 %
Extraction speed 3.5 X
Track quality 99.9 %
Test CRC 79E3174F
Copy CRC 79E3174F
Track not present in AccurateRip database
Copy OK
Track 6
Filename X:\EAC\Dewey Redman - Musics (1978 OJC 1995) [FLAC]\06. Daystar Nightlight.wav
Pre-gap length 0:00:01.10
Peak level 84.6 %
Extraction speed 2.8 X
Track quality 99.9 %
Test CRC 6CCF71F7
Copy CRC 6CCF71F7
Track not present in AccurateRip database
Copy OK
None of the tracks are present in the AccurateRip database
No errors occurred
End of status report
---- CUETools DB Plugin V2.1.3
[CTDB TOCID: o5xCe2I0cDEJJn9tyVMkdwX24T4-] disk not present in database, Submit result: o5xCe2I0cDEJJn9tyVMkdwX24T4- has been uploaded
==== Log checksum 864A530B2D1ECE64D7DAEF5852D03F45D1CA8A8DA20CB00F67F440890A44C53C ====
 
.cue
REM GENRE Jazz
REM DATE 1978
REM DISCID 500A1B06
REM COMMENT "ExactAudioCopy v1.0b3"
PERFORMER "Dewey Redman"
TITLE "Musics"
FILE "01. Need To Be.wav" WAVE
TRACK 01 AUDIO
TITLE "Need To Be"
PERFORMER "Dewey Redman"
INDEX 01 00:00:00
TRACK 02 AUDIO
TITLE "The Virgin Strike"
PERFORMER "Dewey Redman"
INDEX 00 10:12:37
FILE "02. The Virgin Strike.wav" WAVE
INDEX 01 00:00:00
TRACK 03 AUDIO
TITLE "Alone Again"
PERFORMER "Dewey Redman"
INDEX 00 05:35:63
FILE "03. Alone Again.wav" WAVE
INDEX 01 00:00:00
TRACK 04 AUDIO
TITLE "Unknown Tongue"
PERFORMER "Dewey Redman"
INDEX 00 06:22:27
FILE "04. Unknown Tongue.wav" WAVE
INDEX 01 00:00:00
TRACK 05 AUDIO
TITLE "One Beautiful Day"
PERFORMER "Dewey Redman"
INDEX 00 09:07:23
FILE "05. One Beautiful Day.wav" WAVE
INDEX 01 00:00:00
TRACK 06 AUDIO
TITLE "Daystar Nightlight"
PERFORMER "Dewey Redman"
INDEX 00 05:36:65
FILE "06. Daystar Nightlight.wav" WAVE
INDEX 01 00:00:00
 
.accurip
[CUETools log; Date: 09/08/13 20:38:00; Version: 2.1.4]
[CTDB TOCID: o5xCe2I0cDEJJn9tyVMkdwX24T4-] found.
Track | CTDB Status
1 | (1/1) Accurately ripped
2 | (1/1) Accurately ripped
3 | (1/1) Accurately ripped
4 | (1/1) Accurately ripped
5 | (1/1) Accurately ripped
6 | (1/1) Accurately ripped
[AccurateRip ID: 000afbfa-00399182-500a1b06] found.
Track [ CRC | V2 ] Status
01 [a6aed7fa|c9c5eca7] (0+2/2) Accurately ripped
02 [fd4e4cfe|1bd46f3c] (0+2/2) Accurately ripped
03 [96dd8667|61fe45a7] (0+2/2) Accurately ripped
04 [e6f79585|1fb12e45] (0+2/2) Accurately ripped
05 [04897339|823f3f4b] (0+2/2) Accurately ripped
06 [195cbd67|18ff1a9f] (0+2/2) Accurately ripped
Track Peak [ CRC32 ] [W/O NULL] [ LOG ]
-- 89.1 [7C830A49] [F39F7924]
01 85.5 [9DED04B3] [1AD6D1B2] CRC32
02 86.8 [63CDB67C] [0328FCDE] CRC32
03 56.9 [95CBD782] [91524E23] CRC32
04 89.1 [66A3F136] [E1F1AB83] CRC32
05 59.0 [79E3174F] [0D04965B] CRC32
06 84.6 [6CCF71F7] [1B66059B] CRC32

другие релизы
По всем вопросам пишите личное сообщение пользователю M0p94ok.
16:59
164
Нет комментариев. Ваш будет первым!