Вы используете незарегистрированную версию компонента "Вкладки"!

Поиск

(Contemporary Jazz, Altri Suoni) Double Jeu Collectif (Christian Graf, Pierre-Francois Massy, Philippe Ehinger, Yves Massy, Ian Gordon-Lennox a. o.) - Live at AMR-Sud des Alpes - 2001, FLAC (tracks+.cue), lossless

(Contemporary Jazz, Altri Suoni) Double Jeu Collectif (Christian Graf, Pierre-Francois Massy, Philippe Ehinger, Yves Massy, Ian Gordon-Lennox a. o.) - Live at AMR-Sud des Alpes - 2001, FLAC (tracks+.cue), lossless
Треклист:
Double Jeu Collectif / Live at AMR-Sud des Alpes
Жанр: Contemporary Jazz, Altri Suoni
Страна-производитель диска: Switzerland
Год издания: 2001
Издатель (лейбл): Altri Suoni
Номер по каталогу: AS 115
Аудиокодек: FLAC (*.flac)
Тип рипа: tracks+.cue
Битрейт аудио: lossless
Продолжительность: 1:03:21
Источник (релизер): Max Monteiro
Наличие сканов в содержимом раздачи: нет
Треклист:
1. David’s Song 8:39
2. L’Enfer de Xique-Xique 6:48
3. Lefteria 6:55
4. La Fatalité de l’adieu 6:57
5. Ostinato 9:04
6. Refunk 8:52
7. Trouble Jeu, dio! 9:01
8. Crotales 7:03
Compositions : François Chevrolet sauf 2, 4 : Christian Graf, 8 : Bernard Trontin.
Tous les arrangements pour ce projet sont d’Yves Massy.
Enregistrement en public les 6 et 7 octobre 2000 au Sud des Alpes (AMR, Genève).
Christian Graf – guitare
Pierre-François Massy – contrebasse
Marcel Papaux – batterie
Anches :
François Chevrolet – saxophones alto et baryton
Yves Cerf – saxophones ténor et basse
Philippe Ehinger – clarinette et clarinette basse
Cuivres :
Yves Massy – trombone
Ian Gordon-Lennox – trompette et tuba
John Aram – trombone
 
Лог создания рипа
Exact Audio Copy V1.0 beta 3 from 29. August 2011
EAC extraction logfile from 2. August 2013, 21:44
Double Jeu Collectif / Live at AMR-Sud des Alpes
Used drive : SlimtypeeNAU508 5 Adapter: 1 ID: 0
Read mode : Secure
Utilize accurate stream : Yes
Defeat audio cache : Yes
Make use of C2 pointers : No
Read offset correction : 6
Overread into Lead-In and Lead-Out : No
Fill up missing offset samples with silence : Yes
Delete leading and trailing silent blocks : No
Null samples used in CRC calculations : Yes
Used interface : Native Win32 interface for Win NT & 2000
Gap handling : Appended to previous track
Used output format : User Defined Encoder
Selected bitrate : 768 kBit/s
Quality : High
Add ID3 tag : No
Command line compressor : C:\Program Files (x86)\Exact Audio Copy\Flac\flac.exe
Additional command line options : -8 -V -T "ARTIST=%artist%" -T "TITLE=%title%" -T "ALBUM=%albumtitle%" -T "DATE=%year%" -T "TRACKNUMBER=%tracknr%" -T "GENRE=%genre%" -T "PERFORMER=%albuminterpret%" -T "COMPOSER=%composer%" %haslyrics%--tag-from-file=LYRICS="%lyricsfile%"%haslyrics% -T "ALBUMARTIST=%albumartist%" -T "DISCNUMBER=%cdnumber%" -T "TOTALDISCS=%totalcds%" -T "TOTALTRACKS=%numtracks%" -T "COMMENT=%comment%" %source% -o %dest%
TOC of the extracted CD
Track | Start | Length | Start sector | End sector
---------------------------------------------------------
1 | 0:00.00 | 8:39.20 | 0 | 38944
2 | 8:39.20 | 6:47.69 | 38945 | 69538
3 | 15:27.14 | 6:55.18 | 69539 | 100681
4 | 22:22.32 | 6:57.33 | 100682 | 131989
5 | 29:19.65 | 9:03.70 | 131990 | 172784
6 | 38:23.60 | 8:52.15 | 172785 | 212699
7 | 47:16.00 | 9:01.23 | 212700 | 253297
8 | 56:17.23 | 7:03.37 | 253298 | 285059
Track 1
Filename C:\EAC rips\01 - David's Song.wav
Pre-gap length 0:00:02.00
Peak level 98.8 %
Extraction speed 2.4 X
Track quality 100.0 %
Test CRC 8900CDDE
Copy CRC 8900CDDE
Track not present in AccurateRip database
Copy OK
Track 2
Filename C:\EAC rips\02 - L'Enfer de Xique-Xique.wav
Pre-gap length 0:00:00.71
Peak level 98.8 %
Extraction speed 2.8 X
Track quality 100.0 %
Test CRC 70DD0698
Copy CRC 70DD0698
Track not present in AccurateRip database
Copy OK
Track 3
Filename C:\EAC rips\03 - Lefteria.wav
Pre-gap length 0:00:02.10
Peak level 98.8 %
Extraction speed 3.1 X
Track quality 100.0 %
Test CRC 50C5C6EB
Copy CRC 50C5C6EB
Track not present in AccurateRip database
Copy OK
Track 4
Filename C:\EAC rips\04 - La Fatalité de l'adieu.wav
Pre-gap length 0:00:03.29
Peak level 98.8 %
Extraction speed 3.4 X
Track quality 100.0 %
Test CRC FCCCB88C
Copy CRC FCCCB88C
Track not present in AccurateRip database
Copy OK
Track 5
Filename C:\EAC rips\05 - Ostinato.wav
Pre-gap length 0:00:02.01
Peak level 98.8 %
Extraction speed 3.8 X
Track quality 100.0 %
Test CRC E0226D60
Copy CRC E0226D60
Track not present in AccurateRip database
Copy OK
Track 6
Filename C:\EAC rips\06 - Refunk.wav
Pre-gap length 0:00:02.08
Peak level 98.8 %
Extraction speed 3.7 X
Track quality 99.9 %
Test CRC 1F710AE7
Copy CRC 1F710AE7
Track not present in AccurateRip database
Copy OK
Track 7
Filename C:\EAC rips\07 - Trouble Jeu, dio!.wav
Pre-gap length 0:00:02.37
Peak level 98.8 %
Extraction speed 4.3 X
Track quality 100.0 %
Test CRC ACB0C617
Copy CRC ACB0C617
Track not present in AccurateRip database
Copy OK
Track 8
Filename C:\EAC rips\08 - Crotales.wav
Peak level 98.8 %
Extraction speed 0.2 X
Track quality 99.6 %
Test CRC AD116E92
Copy CRC AD116E92
Track not present in AccurateRip database
Copy OK
None of the tracks are present in the AccurateRip database
No errors occurred
End of status report
---- CUETools DB Plugin V2.1.4
[CTDB TOCID: VKJ9Gu0xVC3BZib9BJL32F1Ah3k-] disk not present in database
Submit result: VKJ9Gu0xVC3BZib9BJL32F1Ah3k- has been uploaded
==== Log checksum 0623429D5CE25746D08DE07D0F105623BB449A75D058437420BA8D0D768FA354 ====
 
Содержание индексной карты (.CUE)
REM GENRE Jazz
REM DATE 2001
REM DISCID 6E0ED808
REM COMMENT "ExactAudioCopy v1.0b3"
PERFORMER "Double Jeu Collectif"
TITLE "Live at AMR-Sud des Alpes"
FILE "01 - David's Song.wav" WAVE
TRACK 01 AUDIO
TITLE "David's Song"
PERFORMER "Double Jeu Collectif"
ISRC CH1880109001
INDEX 01 00:00:00
TRACK 02 AUDIO
TITLE "L'Enfer de Xique-Xique"
PERFORMER "Double Jeu Collectif"
ISRC CH1880109002
INDEX 00 08:38:24
FILE "02 - L'Enfer de Xique-Xique.wav" WAVE
INDEX 01 00:00:00
TRACK 03 AUDIO
TITLE "Lefteria"
PERFORMER "Double Jeu Collectif"
ISRC CH1880109003
INDEX 00 06:45:59
FILE "03 - Lefteria.wav" WAVE
INDEX 01 00:00:00
TRACK 04 AUDIO
TITLE "La Fatalité de l'adieu"
PERFORMER "Double Jeu Collectif"
ISRC CH1880109004
INDEX 00 06:51:64
FILE "04 - La Fatalité de l'adieu.wav" WAVE
INDEX 01 00:00:00
TRACK 05 AUDIO
TITLE "Ostinato"
PERFORMER "Double Jeu Collectif"
ISRC CH1880109005
INDEX 00 06:55:32
FILE "05 - Ostinato.wav" WAVE
INDEX 01 00:00:00
TRACK 06 AUDIO
TITLE "Refunk"
PERFORMER "Double Jeu Collectif"
ISRC CH1880109006
INDEX 00 09:01:62
FILE "06 - Refunk.wav" WAVE
INDEX 01 00:00:00
TRACK 07 AUDIO
TITLE "Trouble Jeu, dio!"
PERFORMER "Double Jeu Collectif"
ISRC CH1880109007
INDEX 00 08:49:53
FILE "07 - Trouble Jeu, dio!.wav" WAVE
INDEX 01 00:00:00
FILE "08 - Crotales.wav" WAVE
TRACK 08 AUDIO
TITLE "Crotales"
PERFORMER "Double Jeu Collectif"
ISRC CH1880109008
INDEX 01 00:00:00
Any questions -> support@pro-jazz.com. По всем вопросам пишите -> support@pro-jazz.com
16:58
222
Нет комментариев. Ваш будет первым!