Вы используете незарегистрированную версию компонента "Вкладки"!

Поиск

(Contemporary Jazz, Big Band, Enja Records) Gianluigi Trovesi - Dedalo - 2002, FLAC (tracks+.cue), lossless

(Contemporary Jazz, Big Band, Enja Records) Gianluigi Trovesi - Dedalo - 2002, FLAC (tracks+.cue), lossless
Треклист:
Gianluigi Trovesi / Dedalo
Жанр: Contemoorary Jazz, Big Band, Enja Records
Страна-производитель диска: Germany
Год издания: 2002
Издатель (лейбл): Enja Records
Номер по каталогу: ENJ-9419 2
Аудиокодек: FLAC (*.flac)
Тип рипа: tracks+.cue
Битрейт аудио: lossless
Продолжительность: 1:01:48
Источник (релизер): Max Monteiro
Наличие сканов в содержимом раздачи: нет
Треклист:
01. Hercab (arr. by Corrado Guarino and Gianluigi Trovesi) 7:07
02. Herbop – Fragment (arr. by Fulvio Marras) 0:43
03. Herbop (arr. by Corrado Guarino and Gianluigi Trovesi) 12:53
04. Dance for a King – Fragment 1 (arr. by Corrado Guarino and Gianluigi Trovesi) 0:47
05. Now I Can (arr. by Gianluigi Trovesi) 7:47
06. Dance for a King – Fragment 2 (arr. by Fulvio Marras) 0:49
07. From G to G (arr. by Corrado Guarino and Gianluigi Trovesi) 8:21
08. Scotch (arr. by Corrado Guarino, Gianluigi Trovesi and Fulvio Marras) 6:31
09. Dance for the East No. 2 (arr. by Corrado Guarino, Gianluigi Trovesi and Fulvio Marras) 5:27
10. Dance for a King – Fragment 3 (arr. by Corrado Guarino and Gianluigi Trovesi) 1:40
11. Dedalo (arr. by Corrado Guarino and Gianluigi Trovesi) 5:02
12. Hercab – Live Version (arr. by Corrado Guarino and Gianluigi Trovesi) 4:42
All compositions by Gianluigi Trovesi.
Recorded at WDR Studio 4 on May 28-30, 2001. (11) and (12) recorded live at Moers New Jazz Festival, June 1, 2001.
Gianluigi Trovesi – Alto Saxophone, Alto Clarinet, Bass Clarinet
Markus Stockhausen – Trumpet, Fluegelhorn
Tom Rainey – Drums
Fulvio Maras – Percussion, Effects
The WDR Big Band:
Heiner Wiberny – Alto & Soprano Saxes
Harald Rosenstein – Alto & Soprano Saxes
Olivier Peters – Tenor Sax, Flute
Rolf Römer – Tenor Sax, Bass Clarinet
Jens Neufang – Baritone Sax
Andy Haderer – Trumpet
Rob Bruynen – Trumpet
Klaus Osterloh – Trumpet
John Marshall – Trumpet
Rick Kiefer – Trumpet
Dave Horler – Trombone
Ludwig Nuss – Trombone
Bernt Laukamp – Trombone
Lucas Schmid – Bass Trombone, Tuba
Paul Shigihara – Guitar
Frank Chastenier – Piano
John Goldsby – Bass
 
Лог создания рипа
Exact Audio Copy V1.0 beta 3 from 29. August 2011
EAC extraction logfile from 25. July 2013, 22:15
Gianluigi Trovesi / Dedalo
Used drive : SlimtypeeNAU508 5 Adapter: 1 ID: 0
Read mode : Secure
Utilize accurate stream : Yes
Defeat audio cache : Yes
Make use of C2 pointers : No
Read offset correction : 6
Overread into Lead-In and Lead-Out : No
Fill up missing offset samples with silence : Yes
Delete leading and trailing silent blocks : No
Null samples used in CRC calculations : Yes
Used interface : Native Win32 interface for Win NT & 2000
Gap handling : Appended to previous track
Used output format : User Defined Encoder
Selected bitrate : 768 kBit/s
Quality : High
Add ID3 tag : No
Command line compressor : C:\Program Files (x86)\Exact Audio Copy\Flac\flac.exe
Additional command line options : -8 -V -T "ARTIST=%artist%" -T "TITLE=%title%" -T "ALBUM=%albumtitle%" -T "DATE=%year%" -T "TRACKNUMBER=%tracknr%" -T "GENRE=%genre%" -T "PERFORMER=%albuminterpret%" -T "COMPOSER=%composer%" %haslyrics%--tag-from-file=LYRICS="%lyricsfile%"%haslyrics% -T "ALBUMARTIST=%albumartist%" -T "DISCNUMBER=%cdnumber%" -T "TOTALDISCS=%totalcds%" -T "TOTALTRACKS=%numtracks%" -T "COMMENT=%comment%" %source% -o %dest%
TOC of the extracted CD
Track | Start | Length | Start sector | End sector
---------------------------------------------------------
1 | 0:00.00 | 7:06.43 | 0 | 31992
2 | 7:06.43 | 0:42.71 | 31993 | 35213
3 | 7:49.39 | 12:52.66 | 35214 | 93179
4 | 20:42.30 | 0:46.72 | 93180 | 96701
5 | 21:29.27 | 7:46.43 | 96702 | 131694
6 | 29:15.70 | 0:49.08 | 131695 | 135377
7 | 30:05.03 | 8:21.17 | 135378 | 172969
8 | 38:26.20 | 6:31.37 | 172970 | 202331
9 | 44:57.57 | 5:26.51 | 202332 | 226832
10 | 50:24.33 | 1:40.37 | 226833 | 234369
11 | 52:04.70 | 5:01.49 | 234370 | 256993
12 | 57:06.44 | 4:41.61 | 256994 | 278129
Track 1
Filename C:\EAC rips\01 - Hercab.wav
Pre-gap length 0:00:02.00
Peak level 97.1 %
Extraction speed 2.1 X
Track quality 99.9 %
Test CRC D4C9DE61
Copy CRC D4C9DE61
Accurately ripped (confidence 8) [8B6B9698] (AR v2)
Copy OK
Track 2
Filename C:\EAC rips\02 - Herbop - Fragment.wav
Pre-gap length 0:00:00.45
Peak level 96.3 %
Extraction speed 1.5 X
Track quality 100.0 %
Test CRC B519BC1C
Copy CRC B519BC1C
Accurately ripped (confidence 8) [A2CE058A] (AR v2)
Copy OK
Track 3
Filename C:\EAC rips\03 - Herbop.wav
Pre-gap length 0:00:01.31
Peak level 97.5 %
Extraction speed 2.9 X
Track quality 99.9 %
Test CRC 24609C86
Copy CRC 24609C86
Accurately ripped (confidence 8) [CDFE61FD] (AR v2)
Copy OK
Track 4
Filename C:\EAC rips\04 - Dance for a King - Fragment 1.wav
Pre-gap length 0:00:00.18
Peak level 94.9 %
Extraction speed 1.9 X
Track quality 100.0 %
Test CRC F45502C7
Copy CRC F45502C7
Accurately ripped (confidence 8) [8023849D] (AR v2)
Copy OK
Track 5
Filename C:\EAC rips\05 - Now I Can.wav
Pre-gap length 0:00:00.33
Peak level 98.8 %
Extraction speed 3.5 X
Track quality 100.0 %
Test CRC 1C20CB01
Copy CRC 1C20CB01
Accurately ripped (confidence 8) [B06355F4] (AR v2)
Copy OK
Track 6
Filename C:\EAC rips\06 - Dance for a King - Fragment 2.wav
Pre-gap length 0:00:01.33
Peak level 95.4 %
Extraction speed 1.3 X
Track quality 99.7 %
Test CRC 7EDD83E0
Copy CRC 7EDD83E0
Accurately ripped (confidence 8) [BEFF1D6A] (AR v2)
Copy OK
Track 7
Filename C:\EAC rips\07 - From G to G.wav
Pre-gap length 0:00:00.26
Peak level 98.3 %
Extraction speed 3.9 X
Track quality 100.0 %
Test CRC 3D87FE26
Copy CRC 3D87FE26
Accurately ripped (confidence 8) [6DDF615C] (AR v2)
Copy OK
Track 8
Filename C:\EAC rips\08 - Scotch.wav
Pre-gap length 0:00:00.49
Peak level 96.4 %
Extraction speed 4.0 X
Track quality 100.0 %
Test CRC 4D1E73C8
Copy CRC 4D1E73C8
Accurately ripped (confidence 7) [B83845FE] (AR v2)
Copy OK
Track 9
Filename C:\EAC rips\09 - Dance for the East No. 2.wav
Pre-gap length 0:00:01.17
Peak level 96.5 %
Extraction speed 3.6 X
Track quality 99.9 %
Test CRC 0A8548D9
Copy CRC 0A8548D9
Accurately ripped (confidence 8) [A9D0CEF7] (AR v2)
Copy OK
Track 10
Filename C:\EAC rips\10 - Dance for a King - Fragment 3.wav
Pre-gap length 0:00:00.73
Peak level 95.5 %
Extraction speed 3.4 X
Track quality 100.0 %
Test CRC 22195467
Copy CRC 22195467
Accurately ripped (confidence 8) [216875DE] (AR v2)
Copy OK
Track 11
Filename C:\EAC rips\11 - Dedalo.wav
Pre-gap length 0:00:01.48
Peak level 98.8 %
Extraction speed 4.3 X
Track quality 100.0 %
Test CRC B04D560B
Copy CRC B04D560B
Accurately ripped (confidence 8) [D2CF66AA] (AR v2)
Copy OK
Track 12
Filename C:\EAC rips\12 - Hercab - Live Version.wav
Peak level 97.2 %
Extraction speed 4.4 X
Track quality 100.0 %
Test CRC FB0C03A9
Copy CRC FB0C03A9
Accurately ripped (confidence 8) [6148130F] (AR v2)
Copy OK
All tracks accurately ripped
No errors occurred
End of status report
---- CUETools DB Plugin V2.1.4
[CTDB TOCID: rVF4h46uFM1CVycf1lks_ECLnN0-] found
Submit result: rVF4h46uFM1CVycf1lks_ECLnN0- has been confirmed
Track | CTDB Status
1 | (5/5) Accurately ripped
2 | (5/5) Accurately ripped
3 | (5/5) Accurately ripped
4 | (5/5) Accurately ripped
5 | (5/5) Accurately ripped
6 | (5/5) Accurately ripped
7 | (5/5) Accurately ripped
8 | (5/5) Accurately ripped
9 | (5/5) Accurately ripped
10 | (5/5) Accurately ripped
11 | (5/5) Accurately ripped
12 | (5/5) Accurately ripped
==== Log checksum DF8EF393AA8DBED2F92A05E2B120FD0B81CB3FCA08F69A539A84F6AE6AA63E76 ====
 
Содержание индексной карты (.CUE)
REM GENRE Jazz
REM DATE 2002
REM DISCID A70E7C0C
REM COMMENT "ExactAudioCopy v1.0b3"
PERFORMER "Gianluigi Trovesi"
TITLE "Dedalo"
FILE "01 - Hercab.wav" WAVE
TRACK 01 AUDIO
TITLE "Hercab"
PERFORMER "Gianluigi Trovesi"
ISRC DEA590201901
INDEX 01 00:00:00
TRACK 02 AUDIO
TITLE "Herbop - Fragment"
PERFORMER "Gianluigi Trovesi"
ISRC DEA590201902
INDEX 00 07:05:73
FILE "02 - Herbop - Fragment.wav" WAVE
INDEX 01 00:00:00
TRACK 03 AUDIO
TITLE "Herbop"
PERFORMER "Gianluigi Trovesi"
ISRC DEA590201903
INDEX 00 00:41:40
FILE "03 - Herbop.wav" WAVE
INDEX 01 00:00:00
TRACK 04 AUDIO
TITLE "Dance for a King - Fragment 1"
PERFORMER "Gianluigi Trovesi"
ISRC DEA590201904
INDEX 00 12:52:48
FILE "04 - Dance for a King - Fragment 1.wav" WAVE
INDEX 01 00:00:00
TRACK 05 AUDIO
TITLE "Now I Can"
PERFORMER "Gianluigi Trovesi"
ISRC DEA590201905
INDEX 00 00:46:39
FILE "05 - Now I Can.wav" WAVE
INDEX 01 00:00:00
TRACK 06 AUDIO
TITLE "Dance for a King - Fragment 2"
PERFORMER "Gianluigi Trovesi"
ISRC DEA590201906
INDEX 00 07:45:10
FILE "06 - Dance for a King - Fragment 2.wav" WAVE
INDEX 01 00:00:00
TRACK 07 AUDIO
TITLE "From G to G"
PERFORMER "Gianluigi Trovesi"
ISRC DEA590201907
INDEX 00 00:48:57
FILE "07 - From G to G.wav" WAVE
INDEX 01 00:00:00
TRACK 08 AUDIO
TITLE "Scotch"
PERFORMER "Gianluigi Trovesi"
ISRC DEA590201908
INDEX 00 08:20:43
FILE "08 - Scotch.wav" WAVE
INDEX 01 00:00:00
TRACK 09 AUDIO
TITLE "Dance for the East No. 2"
PERFORMER "Gianluigi Trovesi"
ISRC DEA590201909
INDEX 00 06:30:20
FILE "09 - Dance for the East No. 2.wav" WAVE
INDEX 01 00:00:00
TRACK 10 AUDIO
TITLE "Dance for a King - Fragment 3"
PERFORMER "Gianluigi Trovesi"
ISRC DEA590201910
INDEX 00 05:25:53
FILE "10 - Dance for a King - Fragment 3.wav" WAVE
INDEX 01 00:00:00
TRACK 11 AUDIO
TITLE "Dedalo"
PERFORMER "Gianluigi Trovesi"
ISRC DEA590201911
INDEX 00 01:38:64
FILE "11 - Dedalo.wav" WAVE
INDEX 01 00:00:00
FILE "12 - Hercab - Live Version.wav" WAVE
TRACK 12 AUDIO
TITLE "Hercab - Live Version"
PERFORMER "Gianluigi Trovesi"
ISRC DEA590201912
INDEX 01 00:00:00
 
Состав
Soloists:
1. Hercab
Gianluigi Trovesi – Alto Clarinet
Markus Stockhausen – Trumpet
Frank Chastenier – Piano
2. Herbop – Fragment
3. Herbop
Markus Stockhausen – Trumpet
Gianluigi Trovesi – Alto Sax, Alto Clarinet
Paul Shigihara – Guitar
Heiner Wiberny & Harald Rosenstein – Soprano Saxes
John Marshall & Andy Haderer – Trumpets
Lucas Schmid – Bass Trombone
Bernt Laukamp – Trombone
Tom Rainey – Drums
Markus Stockhausen – Piccolo Trumpet
Olivier Peters – Tenor Sax
4. Dance for a King – Fragment 1
5. Now I Can
Gianluigi Trovesi – Bass Clarinet
Rolf Römer – Bass Clarinet
Frank Chastenier – Piano
Markus Stockhausen – Trumpet
6. Dance for a King – Fragment 2
7. From G to G
Markus Stockhausen – Trumpet, Fluegelhorn
Dave Horler – Trombone
Harald Rosenstein – Alto Sax
Olivier Peters – Flute
Frank Chastenier – Piano
8. Scotch
Gianluigi Trovesi – Bass Clarinet
Heiner Wiberny – Alto Sax
John Marshall – Trumpet
Frank Chastenier – Piano
Tom Rainey – Drums
9. Dance for the East No. 2
Markus Stockhausen – Fluegelhorn
10. Dance for a King – Fragment 3
John Goldsby – Bass
11. Dedalo
Paul Shigihara – Guitar
Markus Stockhausen – Trumpet
12. Hercab – Live Version
Gianluigi Trovesi – Alto Clarinet
Markus Stockhausen – Trumpet
Frank Chastenier – Piano
По всем вопросам пишите личное сообщение пользователю M0p94ok.
16:57
170
Нет комментариев. Ваш будет первым!