Вы используете незарегистрированную версию компонента "Вкладки"!

Поиск

(Free Improvisation, Altri Suoni) Beatrice Graf (with Lucien Dubuis, Samuel Blaser, John Menoud a. o.) - Transhumance (2CDs) - 2011, FLAC (tracks+.cue), lossless

(Free Improvisation, Altri Suoni) Beatrice Graf (with Lucien Dubuis, Samuel Blaser, John Menoud a. o.) - Transhumance (2CDs) - 2011, FLAC (tracks+.cue), lossless
Треклист:
Béatrice Graf / Transhumance (2CDs)
Жанр: Free Improvisation, Altri Suoni
Страна-производитель диска: Switzerland
Год издания: 2011
Издатель (лейбл): Altri Suoni
Номер по каталогу: AS 304
Аудиокодек: FLAC (*.flac)
Тип рипа: tracks+.cue
Битрейт аудио: lossless
Продолжительность: 51:57 + 47:24
Источник (релизер): Max Monteiro
Наличие сканов в содержимом раздачи: да
Треклист:
Disc 1
01. Bioggio (TI) > Grotto la vigna 1:20
02. Uffikon (LU) > Im Tempelhof 6:33
03. Genève (GE) > Place des Grottes 2:49
04. Landecy (GE) > Dans les champs 4:00
05. Hundwil (AR) > Auf der Hundwiler Hoehe 6:16
06. Genève (GE) > Place des Grottes 4:50
07. Bienne (BE) > Au Pavillon Felsenegg 2:48
08. Nyon (VD) > À la piscine 3:30
09. Stans (NW) > Auf dem Dorfplatz 6:01
10. Nyon (VD) > À la piscine 1:34
11. La Chaux-de-Fonds (NE) > Au marché 4:41
12. Hundwil (AR) > Auf der Hundwiler Hoehe 2:01
13. Bienne (BE) > Au Pavillon Felsenegg 3:12
14. Uffikon (LU) > Im Tempelhof 2:22
Disc 2
01. Uffikon (LU) > Im Tempelhof 4:20
02. Landecy (GE) > Dans les champs 12:12
03. Bienne (BE) > Au Pavillon Felsenegg 1:42
04. Genève (GE) > Place des Grottes 2:45
05. Stans (NW) > Auf dem Dorfplaz 2:25
06. Hundwil (AR) > Auf der Hundwiler Hoehe 1:05
07. La Chaux-de-Fonds (NE) > Au marché 5:01
08. Genève (GE) > Place des Grottes 4:39
09. Nyon (VD) > À la piscine 2:17
10. Bienne (BE) > Au Pavillon Felsenegg 1:50
11. Warth (TG) > Im Kartause Ittingen 5:06
12. Nyon (VD) > À la piscine 2:10
13. Nyon (VD) > À la piscine 1:51
All the music is 100 % live improvisation.
Recorded between May 2009 and March 2011.
 
Лог создания рипа

 
Disc 1
Exact Audio Copy V1.0 beta 3 from 29. August 2011
EAC extraction logfile from 8. August 2013, 11:10
Béatrice Graf / Transhumance (Disc 1)
Used drive : SlimtypeeNAU508 5 Adapter: 1 ID: 0
Read mode : Secure
Utilize accurate stream : Yes
Defeat audio cache : Yes
Make use of C2 pointers : No
Read offset correction : 6
Overread into Lead-In and Lead-Out : No
Fill up missing offset samples with silence : Yes
Delete leading and trailing silent blocks : No
Null samples used in CRC calculations : Yes
Used interface : Native Win32 interface for Win NT & 2000
Gap handling : Appended to previous track
Used output format : User Defined Encoder
Selected bitrate : 768 kBit/s
Quality : High
Add ID3 tag : No
Command line compressor : C:\Program Files (x86)\Exact Audio Copy\Flac\flac.exe
Additional command line options : -8 -V -T "ARTIST=%artist%" -T "TITLE=%title%" -T "ALBUM=%albumtitle%" -T "DATE=%year%" -T "TRACKNUMBER=%tracknr%" -T "GENRE=%genre%" -T "PERFORMER=%albuminterpret%" -T "COMPOSER=%composer%" %haslyrics%--tag-from-file=LYRICS="%lyricsfile%"%haslyrics% -T "ALBUMARTIST=%albumartist%" -T "DISCNUMBER=%cdnumber%" -T "TOTALDISCS=%totalcds%" -T "TOTALTRACKS=%numtracks%" -T "COMMENT=%comment%" %source% -o %dest%
TOC of the extracted CD
Track | Start | Length | Start sector | End sector
---------------------------------------------------------
1 | 0:00.00 | 1:19.72 | 0 | 5996
2 | 1:19.72 | 6:32.46 | 5997 | 35442
3 | 7:52.43 | 2:48.41 | 35443 | 48083
4 | 10:41.09 | 4:00.36 | 48084 | 66119
5 | 14:41.45 | 6:15.50 | 66120 | 94294
6 | 20:57.20 | 4:49.60 | 94295 | 116029
7 | 25:47.05 | 2:48.23 | 116030 | 128652
8 | 28:35.28 | 3:30.14 | 128653 | 144416
9 | 32:05.42 | 6:01.29 | 144417 | 171520
10 | 38:06.71 | 1:33.73 | 171521 | 178568
11 | 39:40.69 | 4:41.31 | 178569 | 199674
12 | 44:22.25 | 2:00.58 | 199675 | 208732
13 | 46:23.08 | 3:11.67 | 208733 | 223124
14 | 49:35.00 | 2:22.03 | 223125 | 233777
Track 1
Filename C:\EAC rips\01 - Bioggio (TI) ] Grotto la vigna.wav
Pre-gap length 0:00:02.00
Peak level 74.4 %
Extraction speed 1.7 X
Track quality 100.0 %
Test CRC D31C756F
Copy CRC D31C756F
Track not present in AccurateRip database
Copy OK
Track 2
Filename C:\EAC rips\02 - Uffikon (LU) ] Im Tempelhof.wav
Peak level 98.2 %
Extraction speed 2.5 X
Track quality 100.0 %
Test CRC 81EFACBF
Copy CRC 81EFACBF
Track not present in AccurateRip database
Copy OK
Track 3
Filename C:\EAC rips\03 - Genève (GE) ] Place des Grottes.wav
Peak level 98.2 %
Extraction speed 2.5 X
Track quality 100.0 %
Test CRC 5A3B37E7
Copy CRC 5A3B37E7
Track not present in AccurateRip database
Copy OK
Track 4
Filename C:\EAC rips\04 - Landecy (GE) ] Dans les champs.wav
Peak level 96.5 %
Extraction speed 2.8 X
Track quality 100.0 %
Test CRC 6560BBAF
Copy CRC 6560BBAF
Track not present in AccurateRip database
Copy OK
Track 5
Filename C:\EAC rips\05 - Hundwil (AR) ] Auf der Hundwiler Hoehe.wav
Peak level 96.4 %
Extraction speed 3.2 X
Track quality 100.0 %
Test CRC 694B7429
Copy CRC 694B7429
Track not present in AccurateRip database
Copy OK
Track 6
Filename C:\EAC rips\06 - Genève (GE) ] Place des Grottes.wav
Peak level 97.6 %
Extraction speed 2.8 X
Track quality 99.9 %
Test CRC 1AFE88D8
Copy CRC 1AFE88D8
Track not present in AccurateRip database
Copy OK
Track 7
Filename C:\EAC rips\07 - Bienne (BE) ] Au Pavillon Felsenegg.wav
Peak level 98.2 %
Extraction speed 2.5 X
Track quality 99.9 %
Test CRC C5A8179A
Copy CRC C5A8179A
Track not present in AccurateRip database
Copy OK
Track 8
Filename C:\EAC rips\08 - Nyon (VD) ] À la piscine.wav
Peak level 98.2 %
Extraction speed 3.4 X
Track quality 100.0 %
Test CRC B9C2837A
Copy CRC B9C2837A
Track not present in AccurateRip database
Copy OK
Track 9
Filename C:\EAC rips\09 - Stans (NW) ] Auf dem Dorfplatz.wav
Peak level 97.0 %
Extraction speed 3.9 X
Track quality 100.0 %
Test CRC D68274FE
Copy CRC D68274FE
Track not present in AccurateRip database
Copy OK
Track 10
Filename C:\EAC rips\10 - Nyon (VD) ] À la piscine.wav
Peak level 83.2 %
Extraction speed 3.0 X
Track quality 100.0 %
Test CRC 01620A0B
Copy CRC 01620A0B
Track not present in AccurateRip database
Copy OK
Track 11
Filename C:\EAC rips\11 - La Chaux-de-Fonds (NE) ] Au marché.wav
Peak level 96.8 %
Extraction speed 4.0 X
Track quality 100.0 %
Test CRC 23D8D772
Copy CRC 23D8D772
Track not present in AccurateRip database
Copy OK
Track 12
Filename C:\EAC rips\12 - Hundwil (AR) ] Auf der Hundwiler Hoehe.wav
Peak level 82.9 %
Extraction speed 3.5 X
Track quality 100.0 %
Test CRC 1CDC5BEA
Copy CRC 1CDC5BEA
Track not present in AccurateRip database
Copy OK
Track 13
Filename C:\EAC rips\13 - Bienne (BE) ] Au Pavillon Felsenegg.wav
Peak level 98.2 %
Extraction speed 3.1 X
Track quality 99.9 %
Test CRC FC29D562
Copy CRC FC29D562
Track not present in AccurateRip database
Copy OK
Track 14
Filename C:\EAC rips\14 - Uffikon (LU) ] Im Tempelhof.wav
Peak level 28.1 %
Extraction speed 3.6 X
Track quality 100.0 %
Test CRC 5E7368A8
Copy CRC 5E7368A8
Track not present in AccurateRip database
Copy OK
None of the tracks are present in the AccurateRip database
No errors occurred
End of status report
---- CUETools DB Plugin V2.1.4
[CTDB TOCID: yqLLmj6lYXxJuikgkYBRQkf8Izs-] found
Submit result: already submitted
Track | CTDB Status
1 | (1/1) Accurately ripped
2 | (1/1) Accurately ripped
3 | (1/1) Accurately ripped
4 | (1/1) Accurately ripped
5 | (1/1) Accurately ripped
6 | (1/1) Accurately ripped
7 | (1/1) Accurately ripped
8 | (1/1) Accurately ripped
9 | (1/1) Accurately ripped
10 | (1/1) Accurately ripped
11 | (1/1) Accurately ripped
12 | (1/1) Accurately ripped
13 | (1/1) Accurately ripped
14 | (1/1) Accurately ripped
==== Log checksum D876E7D7B32BB4E7442D4118DA8BDD5C023D6F5F92A5A2F72BD2E03D90A9E480 ====
 
Disc 2
Exact Audio Copy V1.0 beta 3 from 29. August 2011
EAC extraction logfile from 8. August 2013, 10:30
Béatrice Graf / Transhumance (Disc 2)
Used drive : SlimtypeeNAU508 5 Adapter: 1 ID: 0
Read mode : Secure
Utilize accurate stream : Yes
Defeat audio cache : Yes
Make use of C2 pointers : No
Read offset correction : 6
Overread into Lead-In and Lead-Out : No
Fill up missing offset samples with silence : Yes
Delete leading and trailing silent blocks : No
Null samples used in CRC calculations : Yes
Used interface : Native Win32 interface for Win NT & 2000
Gap handling : Appended to previous track
Used output format : User Defined Encoder
Selected bitrate : 768 kBit/s
Quality : High
Add ID3 tag : No
Command line compressor : C:\Program Files (x86)\Exact Audio Copy\Flac\flac.exe
Additional command line options : -8 -V -T "ARTIST=%artist%" -T "TITLE=%title%" -T "ALBUM=%albumtitle%" -T "DATE=%year%" -T "TRACKNUMBER=%tracknr%" -T "GENRE=%genre%" -T "PERFORMER=%albuminterpret%" -T "COMPOSER=%composer%" %haslyrics%--tag-from-file=LYRICS="%lyricsfile%"%haslyrics% -T "ALBUMARTIST=%albumartist%" -T "DISCNUMBER=%cdnumber%" -T "TOTALDISCS=%totalcds%" -T "TOTALTRACKS=%numtracks%" -T "COMMENT=%comment%" %source% -o %dest%
TOC of the extracted CD
Track | Start | Length | Start sector | End sector
---------------------------------------------------------
1 | 0:00.00 | 4:19.63 | 0 | 19487
2 | 4:19.63 | 12:11.46 | 19488 | 74358
3 | 16:31.34 | 1:42.14 | 74359 | 82022
4 | 18:13.48 | 2:45.00 | 82023 | 94397
5 | 20:58.48 | 2:24.68 | 94398 | 105265
6 | 23:23.41 | 1:04.71 | 105266 | 110136
7 | 24:28.37 | 5:01.08 | 110137 | 132719
8 | 29:29.45 | 4:39.16 | 132720 | 153660
9 | 34:08.61 | 2:17.16 | 153661 | 163951
10 | 36:26.02 | 1:50.13 | 163952 | 172214
11 | 38:16.15 | 5:06.18 | 172215 | 195182
12 | 43:22.33 | 2:10.09 | 195183 | 204941
13 | 45:32.42 | 1:51.22 | 204942 | 213288
Track 1
Filename C:\EAC rips\01 - Uffikon (LU) ] Im Tempelhof.wav
Pre-gap length 0:00:02.00
Peak level 98.6 %
Extraction speed 2.2 X
Track quality 100.0 %
Test CRC A7BAEAD2
Copy CRC A7BAEAD2
Track not present in AccurateRip database
Copy OK
Track 2
Filename C:\EAC rips\02 - Landecy (GE) ] Dans les champs.wav
Peak level 98.6 %
Extraction speed 2.9 X
Track quality 100.0 %
Test CRC 5E81BB71
Copy CRC 5E81BB71
Track not present in AccurateRip database
Copy OK
Track 3
Filename C:\EAC rips\03 - Bienne (BE) ] Au Pavillon Felsenegg.wav
Peak level 98.6 %
Extraction speed 2.5 X
Track quality 100.0 %
Test CRC 356C2AC0
Copy CRC 356C2AC0
Track not present in AccurateRip database
Copy OK
Track 4
Filename C:\EAC rips\04 - Genève (GE) ] Place des Grottes.wav
Peak level 98.6 %
Extraction speed 2.3 X
Track quality 99.9 %
Test CRC 3959E86A
Copy CRC 3959E86A
Track not present in AccurateRip database
Copy OK
Track 5
Filename C:\EAC rips\05 - Stans (NW) ] Auf dem Dorfplatz.wav
Peak level 98.4 %
Extraction speed 3.0 X
Track quality 100.0 %
Test CRC 546B17D9
Copy CRC 546B17D9
Track not present in AccurateRip database
Copy OK
Track 6
Filename C:\EAC rips\06 - Hundwil (AR) ] Auf der Hundwiler Hoehe.wav
Peak level 75.5 %
Extraction speed 2.3 X
Track quality 100.0 %
Test CRC FA8589E7
Copy CRC FA8589E7
Track not present in AccurateRip database
Copy OK
Track 7
Filename C:\EAC rips\07 - La Chaux-de-Fonds (NE) ] Au marché.wav
Peak level 71.8 %
Extraction speed 2.9 X
Track quality 99.9 %
Test CRC 21A7A9EC
Copy CRC 21A7A9EC
Track not present in AccurateRip database
Copy OK
Track 8
Filename C:\EAC rips\08 - Genève (GE) ] Place des Grottes.wav
Peak level 97.1 %
Extraction speed 3.1 X
Track quality 99.9 %
Test CRC 12951205
Copy CRC 12951205
Track not present in AccurateRip database
Copy OK
Track 9
Filename C:\EAC rips\09 - Nyon (VD) ] À la piscine.wav
Peak level 66.0 %
Extraction speed 3.4 X
Track quality 100.0 %
Test CRC 2FB44922
Copy CRC 2FB44922
Track not present in AccurateRip database
Copy OK
Track 10
Filename C:\EAC rips\10 - Bienne (BE) ] Au Pavillon Felsenegg.wav
Peak level 98.5 %
Extraction speed 3.2 X
Track quality 100.0 %
Test CRC DC1DD3AE
Copy CRC DC1DD3AE
Track not present in AccurateRip database
Copy OK
Track 11
Filename C:\EAC rips\11 - Warth (TG) ] Im Kartause Ittingen.wav
Peak level 98.6 %
Extraction speed 4.0 X
Track quality 100.0 %
Test CRC 8CE9317D
Copy CRC 8CE9317D
Track not present in AccurateRip database
Copy OK
Track 12
Filename C:\EAC rips\12 - Nyon (VD) ] À la piscine.wav
Peak level 98.0 %
Extraction speed 2.6 X
Track quality 99.9 %
Test CRC B4DB1021
Copy CRC B4DB1021
Track not present in AccurateRip database
Copy OK
Track 13
Filename C:\EAC rips\13 - Nyon (VD) ] À la piscine.wav
Peak level 90.0 %
Extraction speed 3.4 X
Track quality 100.0 %
Test CRC BE39D6B0
Copy CRC BE39D6B0
Track not present in AccurateRip database
Copy OK
None of the tracks are present in the AccurateRip database
No errors occurred
End of status report
---- CUETools DB Plugin V2.1.4
[CTDB TOCID: V93xGipxQSZ5JGJkISz50vMyUcQ-] disk not present in database
Submit result: V93xGipxQSZ5JGJkISz50vMyUcQ- has been uploaded
==== Log checksum D1AB19EAE7293771573A2B0D3ADE83D77E19C26994BB5FAA7E2C82F537EC220F ====
 
Содержание индексной карты (.CUE)

 
Disc 1
REM GENRE Jazz
REM DATE 2011
REM DISCID E50C2D0E
REM COMMENT "ExactAudioCopy v1.0b3"
CATALOG 7619993003047
PERFORMER "Béatrice Graf"
TITLE "Transhumance (Disc 1)"
FILE "01 - Bioggio (TI) - Grotto la vigna.wav" WAVE
TRACK 01 AUDIO
TITLE "Bioggio (TI) > Grotto la vigna"
PERFORMER "Hilaria Kramer / Béatrice Graf"
ISRC CH1881130401
INDEX 01 00:00:00
FILE "02 - Uffikon (LU) - Im Tempelhof.wav" WAVE
TRACK 02 AUDIO
TITLE "Uffikon (LU) > Im Tempelhof"
PERFORMER "Peter Schärli / Béatrice Graf"
ISRC CH1881130402
INDEX 01 00:00:00
FILE "03 - Genève (GE) - Place des Grottes.wav" WAVE
TRACK 03 AUDIO
TITLE "Genève (GE) > Place des Grottes"
PERFORMER "John Menoud / Béatrice Graf"
ISRC CH1881130403
INDEX 01 00:00:00
FILE "04 - Landecy (GE) - Dans les champs.wav" WAVE
TRACK 04 AUDIO
TITLE "Landecy (GE) > Dans les champs"
PERFORMER "Levon Maret / Béatrice Graf"
ISRC CH1881130404
INDEX 01 00:00:00
FILE "05 - Hundwil (AR) - Auf der Hundwiler Hoehe.wav" WAVE
TRACK 05 AUDIO
TITLE "Hundwil (AR) > Auf der Hundwiler Hoehe"
PERFORMER "Reto Suhner / Béatrice Graf"
ISRC CH1881130405
INDEX 01 00:00:00
FILE "06 - Genève (GE) - Place des Grottes.wav" WAVE
TRACK 06 AUDIO
TITLE "Genève (GE) > Place des Grottes"
PERFORMER "John Menoud / Béatrice Graf"
ISRC CH1881130406
INDEX 01 00:00:00
FILE "07 - Bienne (BE) - Au Pavillon Felsenegg.wav" WAVE
TRACK 07 AUDIO
TITLE "Bienne (BE) > Au Pavillon Felsenegg"
PERFORMER "Lucien Dubuis / Béatrice Graf"
ISRC CH1881130407
INDEX 01 00:00:00
FILE "08 - Nyon (VD) - À la piscine.wav" WAVE
TRACK 08 AUDIO
TITLE "Nyon (VD) > À la piscine"
PERFORMER "Reto Suhner / Béatrice Graf"
ISRC CH1881130408
INDEX 01 00:00:00
FILE "09 - Stans (NW) - Auf dem Dorfplatz.wav" WAVE
TRACK 09 AUDIO
TITLE "Stans (NW) > Auf dem Dorfplatz"
PERFORMER "Bruno Amstad / Béatrice Graf"
ISRC CH1881130409
INDEX 01 00:00:00
FILE "10 - Nyon (VD) - À la piscine.wav" WAVE
TRACK 10 AUDIO
TITLE "Nyon (VD) > À la piscine"
PERFORMER "Reto Suhner / Béatrice Graf"
ISRC CH1881130410
INDEX 01 00:00:00
FILE "11 - La Chaux-de-Fonds (NE) - Au marché.wav" WAVE
TRACK 11 AUDIO
TITLE "La Chaux-de-Fonds (NE) > Au marché"
PERFORMER "Samuel Blaser / Béatrice Graf"
ISRC CH1881130411
INDEX 01 00:00:00
FILE "12 - Hundwil (AR) - Auf der Hundwiler Hoehe.wav" WAVE
TRACK 12 AUDIO
TITLE "Hundwil (AR) > Auf der Hundwiler Hoehe"
PERFORMER "Reto Suhner / Béatrice Graf"
ISRC CH1881130412
INDEX 01 00:00:00
FILE "13 - Bienne (BE) - Au Pavillon Felsenegg.wav" WAVE
TRACK 13 AUDIO
TITLE "Bienne (BE) > Au Pavillon Felsenegg"
PERFORMER "Lucien Dubuis / Béatrice Graf"
ISRC CH1881130413
INDEX 01 00:00:00
FILE "14 - Uffikon (LU) - Im Tempelhof.wav" WAVE
TRACK 14 AUDIO
TITLE "Uffikon (LU) > Im Tempelhof"
PERFORMER "Peter Schärli / Béatrice Graf"
ISRC CH1881130414
INDEX 01 00:00:00
 
Disc 2
REM GENRE Jazz
REM DATE 2011
REM DISCID A90B1B0D
REM COMMENT "ExactAudioCopy v1.0b3"
CATALOG 7619993003047
PERFORMER "Béatrice Graf"
TITLE "Transhumance (Disc 2)"
FILE "01 - Uffikon (LU) - Im Tempelhof.wav" WAVE
TRACK 01 AUDIO
TITLE "Uffikon (LU) > Im Tempelhof"
PERFORMER "Peter Schärli / Béatrice Graf"
ISRC CH1881130415
INDEX 01 00:00:00
FILE "02 - Landecy (GE) - Dans les champs.wav" WAVE
TRACK 02 AUDIO
TITLE "Landecy (GE) > Dans les champs"
PERFORMER "Levon Maret / Béatrice Graf"
ISRC CH1881130416
INDEX 01 00:00:00
FILE "03 - Bienne (BE) - Au Pavillon Felsenegg.wav" WAVE
TRACK 03 AUDIO
TITLE "Bienne (BE) > Au Pavillon Felsenegg"
PERFORMER "Lucien Dubuis / Béatrice Graf"
ISRC CH1881130417
INDEX 01 00:00:00
FILE "04 - Genève (GE) - Place des Grottes.wav" WAVE
TRACK 04 AUDIO
TITLE "Genève (GE) > Place des Grottes"
PERFORMER "John Menoud / Béatrice Graf"
ISRC CH1881130418
INDEX 01 00:00:00
FILE "05 - Stans (NW) - Auf dem Dorfplatz.wav" WAVE
TRACK 05 AUDIO
TITLE "Stans (NW) > Auf dem Dorfplatz"
PERFORMER "Bruno Amstad / Béatrice Graf"
ISRC CH1881130419
INDEX 01 00:00:00
FILE "06 - Hundwil (AR) - Auf der Hundwiler Hoehe.wav" WAVE
TRACK 06 AUDIO
TITLE "Hundwil (AR) > Auf der Hundwiler Hoehe"
PERFORMER "Reto Suhner / Béatrice Graf"
ISRC CH1881130420
INDEX 01 00:00:00
FILE "07 - La Chaux-de-Fonds (NE) - Au marché.wav" WAVE
TRACK 07 AUDIO
TITLE "La Chaux-de-Fonds (NE) > Au marché"
PERFORMER "Samuel Blaser Quartet"
ISRC CH1881130421
INDEX 01 00:00:00
FILE "08 - Genève (GE) - Place des Grottes.wav" WAVE
TRACK 08 AUDIO
TITLE "Genève (GE) > Place des Grottes"
PERFORMER "John Menoud / Béatrice Graf"
ISRC CH1881130422
INDEX 01 00:00:00
FILE "09 - Nyon (VD) - À la piscine.wav" WAVE
TRACK 09 AUDIO
TITLE "Nyon (VD) > À la piscine"
PERFORMER "Reto Suhner / Béatrice Graf"
ISRC CH1881130423
INDEX 01 00:00:00
FILE "10 - Bienne (BE) - Au Pavillon Felsenegg.wav" WAVE
TRACK 10 AUDIO
TITLE "Bienne (BE) > Au Pavillon Felsenegg"
PERFORMER "Lucien Dubuis / Béatrice Graf"
ISRC CH1881130424
INDEX 01 00:00:00
FILE "11 - Warth (TG) - Im Kartause Ittingen.wav" WAVE
TRACK 11 AUDIO
TITLE "Warth (TG) > Im Kartause Ittingen"
PERFORMER "Hilaria Kramer / Béatrice Graf"
ISRC CH1881130425
INDEX 01 00:00:00
FILE "12 - Nyon (VD) - À la piscine.wav" WAVE
TRACK 12 AUDIO
TITLE "Nyon (VD) > À la piscine"
PERFORMER "Reto Suhner / Béatrice Graf"
ISRC CH1881130426
INDEX 01 00:00:00
FILE "13 - Nyon (VD) - À la piscine.wav" WAVE
TRACK 13 AUDIO
TITLE "Nyon (VD) > À la piscine"
PERFORMER "Reto Suhner / Béatrice Graf"
ISRC CH1881130427
INDEX 01 00:00:00
 
Состав
Béatrice Graf (drums & concept) plays live & outdoors duos with:
Disc 1
01. Hilaria Kramer – Trumpet
02. Peter Schärli – Trumpet
03. John Menoud – Guitar
04. Levon Maret – Vibraphone
05. Reto Suhner – Saxophone
06. John Menoud – Guitar
07. Lucien Dubuis – Bass Clarinet
08. Reto Suhner – Saxophone
09. Bruno Amstad – Vocal
10. Reto Suhner – Saxophone
11. Samuel Blaser – Trombone
12. Reto Suhner – Saxophone
13. Lucien Dubuis – Bass Clarinet
14. Peter Schärli – Trumpet
Disc 2
01. Peter Schärli – Trumpet
02. Levon Maret – Vibraphone
03. Lucien Dubuis – Bass Clarinet
04. John Menoud – Guitar
05. Bruno Amstad – Vocal
06. Reto Suhner – Saxophone
07. Samuel Blaser – Trombone
08. John Menoud – Guitar
09. Reto Suhner – Saxophone
10. Lucien Dubuis – Bass Clarinet
11. Hilaria Kramer – Trumpet
12. Reto Suhner – Saxophone
13. Reto Suhner – Saxophone
Any questions -> support@pro-jazz.com. По всем вопросам пишите -> support@pro-jazz.com
16:57
177
Нет комментариев. Ваш будет первым!