Вы используете незарегистрированную версию компонента "Вкладки"!

Поиск

(British Jazz, Contemporary Jazz, Vocal Jazz) (Mike Westbrook) Westbrook Music Theatre - Good Friday 1663 - 1993, FLAC (tracks+.cue), lossless

(British Jazz, Contemporary Jazz, Vocal Jazz) (Mike Westbrook) Westbrook Music Theatre - Good Friday 1663 - 1993, FLAC (tracks+.cue), lossless
Треклист:
Westbrook Music Theatre / Good Friday 1663
Жанр: British Jazz, Contemporary Jazz, Vocal Jazz
Страна-производитель диска: UK
Год издания: 2001
Издатель (лейбл): Jazzprint
Номер по каталогу: JPVP120CD
Страна: UK
Аудиокодек: FLAC (*.flac)
Тип рипа: tracks+.cue
Битрейт аудио: lossless
Продолжительность: 54:19
Источник (релизер): свой фирменный диск
Наличие сканов в содержимом раздачи:
Треклист:
1 Sermon I - Song For Myrtilla - The Song Of Wifely Loathing 6:24
2 Sermon II - The Song Of Female Ignorance 5:04
3 Sermon III 0:50
4 Country Pleasures 8:11
5 Sermon IV - The Carnation Dew - The Vanitas Song 5:23
6 Sermon V 2:39
7 Love Duet 4:45
8 Song Of The Morning After - Sermon VI - The Letter Reading Song 3:41
9 My Dull Eyes Weep - Sermon VII - The Wedding 4:58
10 The Asinine Nuptial Ballad - Four Poster Lament 5:02
11 Sermon VIII - Psalm 116 3:36
12 Belinda's Last Song - Prayer 3:46
 
Лог создания рипа
Exact Audio Copy V1.0 beta 3 from 29. August 2011
EAC extraction logfile from 7. August 2013, 23:24
Westbrook Music Theatre / Good Friday 1663
Used drive : PIONEER DVD-RW DVR-115D Adapter: 0 ID: 0
Read mode : Secure
Utilize accurate stream : Yes
Defeat audio cache : Yes
Make use of C2 pointers : No
Read offset correction : 48
Overread into Lead-In and Lead-Out : No
Fill up missing offset samples with silence : Yes
Delete leading and trailing silent blocks : No
Null samples used in CRC calculations : Yes
Used interface : Installed external ASPI interface
Gap handling : Appended to previous track
Used output format : User Defined Encoder
Selected bitrate : 896 kBit/s
Quality : High
Add ID3 tag : No
Command line compressor : C:\Program Files\Exact Audio Copy\FLAC\FLAC.EXE
Additional command line options : -6 -V -T "ARTIST=%artist%" -T "TITLE=%title%" -T "ALBUM=%albumtitle%" -T "DATE=%year%" -T "TRACKNUMBER=%tracknr%" -T "GENRE=%genre%" -T "COMMENT=%comment%" -T "BAND=%albuminterpret%" -T "COMPOSER=%composer%" %haslyrics%--tag-from-file=LYRICS="%lyricsfile%"%haslyrics% -T "DISCNUMBER=%cdnumber%" -T "TOTALDISCS=%totalcds%" -T "TOTALTRACKS=%numtracks%" %hascover%--picture="%coverfile%"%hascover% %source% -o %dest%
TOC of the extracted CD
Track | Start | Length | Start sector | End sector
---------------------------------------------------------
1 | 0:00.00 | 6:24.05 | 0 | 28804
2 | 6:24.05 | 5:03.44 | 28805 | 51573
3 | 11:27.49 | 0:50.02 | 51574 | 55325
4 | 12:17.51 | 8:11.09 | 55326 | 92159
5 | 20:28.60 | 5:23.37 | 92160 | 116421
6 | 25:52.22 | 2:39.32 | 116422 | 128378
7 | 28:31.54 | 4:45.18 | 128379 | 149771
8 | 33:16.72 | 3:40.71 | 149772 | 166342
9 | 36:57.68 | 4:58.22 | 166343 | 188714
10 | 41:56.15 | 5:01.55 | 188715 | 211344
11 | 46:57.70 | 3:35.53 | 211345 | 227522
12 | 50:33.48 | 3:46.02 | 227523 | 244474
Track 1
Filename D:\zzz\01 - Sermon I, Song For Myrtilla, The Song Of Wifely Loathing.wav
Pre-gap length 0:00:02.00
Peak level 100.0 %
Extraction speed 4.6 X
Track quality 100.0 %
Test CRC E14FF7B8
Copy CRC E14FF7B8
Accurately ripped (confidence 1) [7ED296B6] (AR v1)
Copy OK
Track 2
Filename D:\zzz\02 - Sermon II, The Song Of Female Ignorance.wav
Peak level 100.0 %
Extraction speed 5.1 X
Track quality 100.0 %
Test CRC C06C7A97
Copy CRC C06C7A97
Accurately ripped (confidence 1) [E8C49B59] (AR v1)
Copy OK
Track 3
Filename D:\zzz\03 - Sermon III.wav
Peak level 86.3 %
Extraction speed 3.4 X
Track quality 100.0 %
Test CRC A05E4237
Copy CRC A05E4237
Accurately ripped (confidence 1) [211EF5F3] (AR v1)
Copy OK
Track 4
Filename D:\zzz\04 - Country Pleasures.wav
Peak level 97.1 %
Extraction speed 6.0 X
Track quality 100.0 %
Test CRC C57FE29E
Copy CRC C57FE29E
Accurately ripped (confidence 1) [A150616A] (AR v1)
Copy OK
Track 5
Filename D:\zzz\05 - Sermon IV, The Carnation Dew, The Vanitas Song.wav
Peak level 92.9 %
Extraction speed 6.4 X
Track quality 100.0 %
Test CRC FAEC0A84
Copy CRC FAEC0A84
Accurately ripped (confidence 1) [F75E7CBD] (AR v1)
Copy OK
Track 6
Filename D:\zzz\06 - Sermon V.wav
Peak level 100.0 %
Extraction speed 6.0 X
Track quality 100.0 %
Test CRC ADE668CD
Copy CRC ADE668CD
Accurately ripped (confidence 1) [4C7E06B2] (AR v1)
Copy OK
Track 7
Filename D:\zzz\07 - Love Duet.wav
Peak level 100.0 %
Extraction speed 6.8 X
Track quality 100.0 %
Test CRC 8716F52E
Copy CRC 8716F52E
Accurately ripped (confidence 1) [DA76C2E9] (AR v1)
Copy OK
Track 8
Filename D:\zzz\08 - Song Of The Morning After, Sermon VI, The Letter Reading Song.wav
Pre-gap length 0:00:01.44
Peak level 100.0 %
Extraction speed 6.8 X
Track quality 100.0 %
Test CRC 8413338F
Copy CRC 8413338F
Accurately ripped (confidence 1) [E7BEC37E] (AR v1)
Copy OK
Track 9
Filename D:\zzz\09 - My Dull Eyes Weep, Sermon VII, The Wedding.wav
Pre-gap length 0:00:01.44
Peak level 100.0 %
Extraction speed 7.3 X
Track quality 100.0 %
Test CRC A842B354
Copy CRC A842B354
Accurately ripped (confidence 1) [B6AAB4DB] (AR v1)
Copy OK
Track 10
Filename D:\zzz\10 - The Asinine Nuptial Ballad, Four Poster Lament.wav
Peak level 100.0 %
Extraction speed 7.6 X
Track quality 100.0 %
Test CRC F501B497
Copy CRC F501B497
Accurately ripped (confidence 1) [5283C2F9] (AR v1)
Copy OK
Track 11
Filename D:\zzz\11 - Sermon VIII, Psalm 116.wav
Peak level 100.0 %
Extraction speed 7.5 X
Track quality 100.0 %
Test CRC E931EEAE
Copy CRC E931EEAE
Accurately ripped (confidence 1) [99A6E0C5] (AR v1)
Copy OK
Track 12
Filename D:\zzz\12 - Belinda's Last Song, Prayer.wav
Peak level 100.0 %
Extraction speed 7.7 X
Track quality 100.0 %
Test CRC A5DE1FB0
Copy CRC A5DE1FB0
Accurately ripped (confidence 1) [CA0B2761] (AR v1)
Copy OK
All tracks accurately ripped
No errors occurred
End of status report
==== Log checksum 3672174515F1106FEBBD610816E4F22D96B7EA3CD525B248A1E2D1D4AE84E0A5 ====
 
Содержание индексной карты (.CUE)
REM GENRE Jazz
REM DATE 2001
REM DISCID B60CBB0C
REM COMMENT "ExactAudioCopy v1.0b3"
PERFORMER "Westbrook Music Theatre"
TITLE "Good Friday 1663"
FILE "01 - Sermon I, Song For Myrtilla, The Song Of Wifely Loathing.wav" WAVE
TRACK 01 AUDIO
TITLE "Sermon I, Song For Myrtilla, The Song Of Wifely Loathing"
PERFORMER "Westbrook Music Theatre"
FLAGS DCP
INDEX 01 00:00:00
FILE "02 - Sermon II, The Song Of Female Ignorance.wav" WAVE
TRACK 02 AUDIO
TITLE "Sermon II, The Song Of Female Ignorance"
PERFORMER "Westbrook Music Theatre"
FLAGS DCP
INDEX 01 00:00:00
FILE "03 - Sermon III.wav" WAVE
TRACK 03 AUDIO
TITLE "Sermon III"
PERFORMER "Westbrook Music Theatre"
FLAGS DCP
INDEX 01 00:00:00
FILE "04 - Country Pleasures.wav" WAVE
TRACK 04 AUDIO
TITLE "Country Pleasures"
PERFORMER "Westbrook Music Theatre"
FLAGS DCP
INDEX 01 00:00:00
FILE "05 - Sermon IV, The Carnation Dew, The Vanitas Song.wav" WAVE
TRACK 05 AUDIO
TITLE "Sermon IV, The Carnation Dew, The Vanitas Song"
PERFORMER "Westbrook Music Theatre"
FLAGS DCP
INDEX 01 00:00:00
FILE "06 - Sermon V.wav" WAVE
TRACK 06 AUDIO
TITLE "Sermon V"
PERFORMER "Westbrook Music Theatre"
FLAGS DCP
INDEX 01 00:00:00
FILE "07 - Love Duet.wav" WAVE
TRACK 07 AUDIO
TITLE "Love Duet"
PERFORMER "Westbrook Music Theatre"
FLAGS DCP
INDEX 01 00:00:00
TRACK 08 AUDIO
TITLE "Song Of The Morning After, Sermon VI, The Letter Reading Song"
PERFORMER "Westbrook Music Theatre"
FLAGS DCP
INDEX 00 04:43:49
FILE "08 - Song Of The Morning After, Sermon VI, The Letter Reading Song.wav" WAVE
INDEX 01 00:00:00
TRACK 09 AUDIO
TITLE "My Dull Eyes Weep, Sermon VII, The Wedding"
PERFORMER "Westbrook Music Theatre"
FLAGS DCP
INDEX 00 03:39:27
FILE "09 - My Dull Eyes Weep, Sermon VII, The Wedding.wav" WAVE
INDEX 01 00:00:00
FILE "10 - The Asinine Nuptial Ballad, Four Poster Lament.wav" WAVE
TRACK 10 AUDIO
TITLE "The Asinine Nuptial Ballad, Four Poster Lament"
PERFORMER "Westbrook Music Theatre"
FLAGS DCP
INDEX 01 00:00:00
FILE "11 - Sermon VIII, Psalm 116.wav" WAVE
TRACK 11 AUDIO
TITLE "Sermon VIII, Psalm 116"
PERFORMER "Westbrook Music Theatre"
FLAGS DCP
INDEX 01 00:00:00
FILE "12 - Belinda's Last Song, Prayer.wav" WAVE
TRACK 12 AUDIO
TITLE "Belinda's Last Song, Prayer"
PERFORMER "Westbrook Music Theatre"
FLAGS DCP
INDEX 01 00:00:00
 
Лог проверки качества
d:\>d:\aucdtect -d/-m0 d:\zzz\*.wav
auCDtect: CD records authenticity detector, version 0.8.2
Copyright (c) 2004 Oleg Berngardt. All rights reserved.
Copyright (c) 2004 Alexander Djourik. All rights reserved.
------------------------------------------------------------
Processing file: [01. Sermon I, Song For Myrtilla, The Song Of Wifely Loathing.wav]
------------------------------------------------------------
This track looks like CDDA with probability 100%
------------------------------------------------------------
Processing file: [02. Sermon II, The Song Of Female Ignorance.wav]
------------------------------------------------------------
This track looks like CDDA with probability 100%
------------------------------------------------------------
Processing file: [03. Sermon III.wav]
------------------------------------------------------------
This track looks like CDDA with probability 100%
------------------------------------------------------------
Processing file: [04. Country Pleasures.wav]
------------------------------------------------------------
This track looks like CDDA with probability 100%
------------------------------------------------------------
Processing file: [05. Sermon IV, The Carnation Dew, The Vanitas Song.wav]
------------------------------------------------------------
This track looks like CDDA with probability 100%
------------------------------------------------------------
Processing file: [06. Sermon V.wav]
------------------------------------------------------------
This track looks like CDDA with probability 100%
------------------------------------------------------------
Processing file: [07. Love Duet.wav]
------------------------------------------------------------
This track looks like CDDA with probability 99%
------------------------------------------------------------
Processing file: [08. Song Of The Morning After, Sermon VI, The Letter Reading Song.wav]
------------------------------------------------------------
This track looks like CDDA with probability 100%
------------------------------------------------------------
Processing file: [09. My Dull Eyes Weep, Sermon VII, The Wedding.wav]
------------------------------------------------------------
This track looks like CDDA with probability 100%
------------------------------------------------------------
Processing file: [10. The Asinine Nuptial Ballad, Four Poster Lament.wav]
------------------------------------------------------------
This track looks like CDDA with probability 100%
------------------------------------------------------------
Processing file: [11. Sermon VIII, Psalm 116.wav]
------------------------------------------------------------
This track looks like CDDA with probability 100%
------------------------------------------------------------
Processing file: [12. Belinda's Last Song, Prayer.wav]
------------------------------------------------------------
This track looks like CDDA with probability 100%
------------------------------------------------------------
Final Conclusion:
------------------------------------------------------------
These tracks looks like CDDA with probability 100%
 
Состав
Electronics [Simmonds Kat] – Anthony Kerr
Keyboards – John Alley
Libretto By – Helen Simpson
Music By, Keyboards [Additional Keyboards] – Mike Westbrook
Piccolo Flute, Flute, Soprano Saxophone, Alto Saxophone, Baritone Saxophone – Chris Biscoe
Recorder – Barbara Thompson (tracks: 10)
Sequenced By [Sequencer Programming], Percussion – Jon Hiseman
Vocals – Kate Westbrook, Simon Grant
Recorded at Temple Music Studios, Sutton, Surrey February/March 1993
Produced by Jon Hiseman
Any questions -> support@pro-jazz.com. По всем вопросам пишите -> support@pro-jazz.com
16:56
154
Нет комментариев. Ваш будет первым!