Вы используете незарегистрированную версию компонента "Вкладки"!

Поиск

(British Jazz, Free Jazz, Big Band) Mike Westbrook - Mama Chicago (2CD) - 1979, FLAC (tracks+.cue), lossless

(British Jazz, Free Jazz, Big Band) Mike Westbrook - Mama Chicago (2CD) - 1979, FLAC (tracks+.cue), lossless
Треклист:
Mike Westbrook / Mama Chicago (2CD)
Жанр: British Jazz, Free Jazz, Big Band
Страна-производитель диска: UK
Год издания: 2007
Издатель (лейбл): Jazzprint
Номер по каталогу: JPVP139VCD
Страна: UK
Аудиокодек: FLAC (*.flac)
Тип рипа: tracks+.cue
Битрейт аудио: lossless
Продолжительность: 42:42 + 55:15
Источник (релизер): свой фирменный диск
Наличие сканов в содержимом раздачи:
Треклист:
 
CD1
1-1 Overture 4:27
1-2 Mama Chicago (1) 7:09
1-3 Mama's Boogie 5:08
1-4 Mama Chicago (2) 2:04
1-5 Senator's Song 2:37
1-6 Mama Chicago (3) 5:13
1-7 Voyage 8:25
1-8 Shipwrecked Sailor 7:33
 
CD2
2-1 Prelude 1:54
2-2 Song Of The Rain 8:29
2-3 Prisoners' Hymn 2:14
2-4 Pre-conceived Ideas 5:07
2-5 Heart In Heart, Hand In Hand 3:50
2-6 Goin' To Chicago 6:09
2-7 Apple Pie 2:55
2-8 Mama Chicago (4) 4:45
2-9 Mama Chicago (5) 3:24
2-10 Windy City 6:14
2-11 Titanic Song 5:51
2-12 Concrete 4:10
 
Лог создания рипа
 
CD1
Exact Audio Copy V1.0 beta 3 from 29. August 2011
EAC extraction logfile from 7. August 2013, 17:49
Mike Westbrook / Mama Chicago CD1
Used drive : PIONEER DVD-RW DVR-115D Adapter: 0 ID: 0
Read mode : Secure
Utilize accurate stream : Yes
Defeat audio cache : Yes
Make use of C2 pointers : No
Read offset correction : 48
Overread into Lead-In and Lead-Out : No
Fill up missing offset samples with silence : Yes
Delete leading and trailing silent blocks : No
Null samples used in CRC calculations : Yes
Used interface : Installed external ASPI interface
Gap handling : Appended to previous track
Used output format : User Defined Encoder
Selected bitrate : 896 kBit/s
Quality : High
Add ID3 tag : No
Command line compressor : C:\Program Files\Exact Audio Copy\FLAC\FLAC.EXE
Additional command line options : -6 -V -T "ARTIST=%artist%" -T "TITLE=%title%" -T "ALBUM=%albumtitle%" -T "DATE=%year%" -T "TRACKNUMBER=%tracknr%" -T "GENRE=%genre%" -T "COMMENT=%comment%" -T "BAND=%albuminterpret%" -T "COMPOSER=%composer%" %haslyrics%--tag-from-file=LYRICS="%lyricsfile%"%haslyrics% -T "DISCNUMBER=%cdnumber%" -T "TOTALDISCS=%totalcds%" -T "TOTALTRACKS=%numtracks%" %hascover%--picture="%coverfile%"%hascover% %source% -o %dest%
TOC of the extracted CD
Track | Start | Length | Start sector | End sector
---------------------------------------------------------
1 | 0:00.00 | 4:27.70 | 0 | 20094
2 | 4:27.70 | 7:09.16 | 20095 | 52285
3 | 11:37.11 | 5:10.60 | 52286 | 75595
4 | 16:47.71 | 2:04.69 | 75596 | 84964
5 | 18:52.65 | 2:37.26 | 84965 | 96765
6 | 21:30.16 | 5:13.36 | 96766 | 120276
7 | 26:43.52 | 8:25.08 | 120277 | 158159
8 | 35:08.60 | 7:33.27 | 158160 | 192161
Track 1
Filename D:\zzz\01 - Overture.wav
Pre-gap length 0:00:02.00
Peak level 76.0 %
Extraction speed 3.9 X
Track quality 99.9 %
Test CRC 30E8196C
Copy CRC 30E8196C
Accurately ripped (confidence 3) [06EAD20B] (AR v1)
Copy OK
Track 2
Filename D:\zzz\02 - Mama Chicago (1).wav
Peak level 86.5 %
Extraction speed 5.2 X
Track quality 100.0 %
Test CRC 86DC1A56
Copy CRC 86DC1A56
Accurately ripped (confidence 3) [4F1A2322] (AR v1)
Copy OK
Track 3
Filename D:\zzz\03 - Mama's Boogie.wav
Peak level 79.8 %
Extraction speed 5.6 X
Track quality 100.0 %
Test CRC 6CE737CA
Copy CRC 6CE737CA
Accurately ripped (confidence 3) [D7723614] (AR v1)
Copy OK
Track 4
Filename D:\zzz\04 - Mama Chicago (2).wav
Pre-gap length 0:00:02.26
Peak level 63.4 %
Extraction speed 5.2 X
Track quality 100.0 %
Test CRC 81BBEBC1
Copy CRC 81BBEBC1
Accurately ripped (confidence 3) [39D5DCBF] (AR v1)
Copy OK
Track 5
Filename D:\zzz\05 - Senator's Song.wav
Peak level 67.0 %
Extraction speed 4.7 X
Track quality 99.9 %
Test CRC 02BA43EF
Copy CRC 02BA43EF
Accurately ripped (confidence 3) [016282B8] (AR v1)
Copy OK
Track 6
Filename D:\zzz\06 - Mama Chicago (3).wav
Peak level 80.8 %
Extraction speed 6.4 X
Track quality 100.0 %
Test CRC D7682182
Copy CRC D7682182
Accurately ripped (confidence 3) [B077E034] (AR v1)
Copy OK
Track 7
Filename D:\zzz\07 - Voyage.wav
Peak level 74.9 %
Extraction speed 6.7 X
Track quality 99.9 %
Test CRC 9447CD55
Copy CRC 9447CD55
Accurately ripped (confidence 3) [D3BDF3AA] (AR v1)
Copy OK
Track 8
Filename D:\zzz\08 - Shipwrecked Sailor.wav
Peak level 68.0 %
Extraction speed 7.6 X
Track quality 100.0 %
Test CRC F2E666BF
Copy CRC F2E666BF
Accurately ripped (confidence 3) [D5D688BC] (AR v1)
Copy OK
All tracks accurately ripped
No errors occurred
End of status report
==== Log checksum E2C90CF5240427A431BEAA33E7DD827F2119AF250FEAA5248BFFD9EEA65043E3 ====
 
CD2
Exact Audio Copy V1.0 beta 3 from 29. August 2011
EAC extraction logfile from 7. August 2013, 20:07
Mike Westbrook / Mama Chicago CD2
Used drive : TSSTcorpCDDVDW SH-222AB Adapter: 1 ID: 0
Read mode : Secure
Utilize accurate stream : Yes
Defeat audio cache : Yes
Make use of C2 pointers : No
Read offset correction : 6
Overread into Lead-In and Lead-Out : No
Fill up missing offset samples with silence : Yes
Delete leading and trailing silent blocks : No
Null samples used in CRC calculations : Yes
Used interface : Installed external ASPI interface
Gap handling : Appended to previous track
Used output format : User Defined Encoder
Selected bitrate : 896 kBit/s
Quality : High
Add ID3 tag : No
Command line compressor : C:\Program Files\Exact Audio Copy\FLAC\FLAC.EXE
Additional command line options : -6 -V -T "ARTIST=%artist%" -T "TITLE=%title%" -T "ALBUM=%albumtitle%" -T "DATE=%year%" -T "TRACKNUMBER=%tracknr%" -T "GENRE=%genre%" -T "COMMENT=%comment%" -T "BAND=%albuminterpret%" -T "COMPOSER=%composer%" %haslyrics%--tag-from-file=LYRICS="%lyricsfile%"%haslyrics% -T "DISCNUMBER=%cdnumber%" -T "TOTALDISCS=%totalcds%" -T "TOTALTRACKS=%numtracks%" %hascover%--picture="%coverfile%"%hascover% %source% -o %dest%
TOC of the extracted CD
Track | Start | Length | Start sector | End sector
---------------------------------------------------------
1 | 0:00.00 | 1:54.61 | 0 | 8610
2 | 1:54.61 | 8:29.27 | 8611 | 46812
3 | 10:24.13 | 2:14.71 | 46813 | 56933
4 | 12:39.09 | 5:07.33 | 56934 | 79991
5 | 17:46.42 | 3:50.71 | 79992 | 97312
6 | 21:37.38 | 6:13.45 | 97313 | 125332
7 | 27:51.08 | 2:57.19 | 125333 | 138626
8 | 30:48.27 | 4:45.13 | 138627 | 160014
9 | 35:33.40 | 3:24.14 | 160015 | 175328
10 | 38:57.54 | 6:14.52 | 175329 | 203430
11 | 45:12.31 | 5:52.09 | 203431 | 229839
12 | 51:04.40 | 4:10.73 | 229840 | 248662
Track 1
Filename D:\zzz\01 - Prelude.wav
Pre-gap length 0:00:02.00
Peak level 19.6 %
Extraction speed 2.3 X
Track quality 100.0 %
Test CRC DFFC6C0A
Copy CRC DFFC6C0A
Accurately ripped (confidence 3) [D93A2984] (AR v1)
Copy OK
Track 2
Filename D:\zzz\02 - Song Of The Rain.wav
Peak level 54.3 %
Extraction speed 2.9 X
Track quality 100.0 %
Test CRC 5231528E
Copy CRC 5231528E
Accurately ripped (confidence 3) [62C2ED99] (AR v1)
Copy OK
Track 3
Filename D:\zzz\03 - Prisoners' Hymn.wav
Peak level 46.6 %
Extraction speed 2.4 X
Track quality 100.0 %
Test CRC 59FB92F4
Copy CRC 59FB92F4
Accurately ripped (confidence 3) [5A858B3F] (AR v1)
Copy OK
Track 4
Filename D:\zzz\04 - Pre-Conceived Ideas.wav
Peak level 87.1 %
Extraction speed 2.5 X
Track quality 99.9 %
Test CRC A952D5DB
Copy CRC A952D5DB
Accurately ripped (confidence 3) [C67D305B] (AR v1)
Copy OK
Track 5
Filename D:\zzz\05 - Heart In Heart, Hand In Hand.wav
Peak level 60.4 %
Extraction speed 2.7 X
Track quality 100.0 %
Test CRC 2FAC1E34
Copy CRC 2FAC1E34
Accurately ripped (confidence 3) [4CDB1FD0] (AR v1)
Copy OK
Track 6
Filename D:\zzz\06 - Goin' To Chicago.wav
Peak level 79.9 %
Extraction speed 2.9 X
Track quality 100.0 %
Test CRC 3D239081
Copy CRC 3D239081
Accurately ripped (confidence 3) [D61A7A65] (AR v1)
Copy OK
Track 7
Filename D:\zzz\07 - Apple Pie.wav
Pre-gap length 0:00:04.25
Peak level 15.7 %
Extraction speed 2.2 X
Track quality 99.9 %
Test CRC D24BD81F
Copy CRC D24BD81F
Accurately ripped (confidence 3) [426B2102] (AR v1)
Copy OK
Track 8
Filename D:\zzz\08 - Mama Chicago (4).wav
Pre-gap length 0:00:02.14
Peak level 57.9 %
Extraction speed 2.5 X
Track quality 99.9 %
Test CRC 730408AE
Copy CRC 730408AE
Accurately ripped (confidence 3) [9D013699] (AR v1)
Copy OK
Track 9
Filename D:\zzz\09 - Mama Chicago (5).wav
Peak level 59.1 %
Extraction speed 2.3 X
Track quality 99.9 %
Test CRC 7B9E3AEE
Copy CRC 7B9E3AEE
Accurately ripped (confidence 3) [C301C15B] (AR v1)
Copy OK
Track 10
Filename D:\zzz\10 - Windy City.wav
Peak level 73.0 %
Extraction speed 2.8 X
Track quality 100.0 %
Test CRC AF0ED137
Copy CRC AF0ED137
Accurately ripped (confidence 3) [748CBD0A] (AR v1)
Copy OK
Track 11
Filename D:\zzz\11 - Titanic Song.wav
Peak level 63.8 %
Extraction speed 2.8 X
Track quality 100.0 %
Test CRC C2F41594
Copy CRC C2F41594
Accurately ripped (confidence 3) [75B0DDB7] (AR v1)
Copy OK
Track 12
Filename D:\zzz\12 - Concrete.wav
Pre-gap length 0:00:00.36
Peak level 75.9 %
Extraction speed 2.4 X
Track quality 99.9 %
Test CRC 9F8076A4
Copy CRC 9F8076A4
Accurately ripped (confidence 3) [8869D83E] (AR v1)
Copy OK
All tracks accurately ripped
No errors occurred
End of status report
==== Log checksum B9ED95FBB6DF2EEA1FC5C3ACBD0029E393B1AD5B7F8217168E0C49439756CD6C ====
 
Содержание индексной карты (.CUE)
 
CD1
REM GENRE Jazz
REM DATE 1979
REM DISCID 5C0A0208
REM COMMENT "ExactAudioCopy v1.0b3"
PERFORMER "Mike Westbrook"
TITLE "Mama Chicago CD1"
FILE "01 - Overture.wav" WAVE
TRACK 01 AUDIO
TITLE "Overture"
PERFORMER "Mike Westbrook"
INDEX 01 00:00:00
FILE "02 - Mama Chicago (1).wav" WAVE
TRACK 02 AUDIO
TITLE "Mama Chicago (1)"
PERFORMER "Mike Westbrook"
INDEX 01 00:00:00
FILE "03 - Mama's Boogie.wav" WAVE
TRACK 03 AUDIO
TITLE "Mama's Boogie"
PERFORMER "Mike Westbrook"
INDEX 01 00:00:00
TRACK 04 AUDIO
TITLE "Mama Chicago (2)"
PERFORMER "Mike Westbrook"
INDEX 00 05:08:34
FILE "04 - Mama Chicago (2).wav" WAVE
INDEX 01 00:00:00
FILE "05 - Senator's Song.wav" WAVE
TRACK 05 AUDIO
TITLE "Senator's Song"
PERFORMER "Mike Westbrook"
INDEX 01 00:00:00
FILE "06 - Mama Chicago (3).wav" WAVE
TRACK 06 AUDIO
TITLE "Mama Chicago (3)"
PERFORMER "Mike Westbrook"
INDEX 01 00:00:00
FILE "07 - Voyage.wav" WAVE
TRACK 07 AUDIO
TITLE "Voyage"
PERFORMER "Mike Westbrook"
INDEX 01 00:00:00
FILE "08 - Shipwrecked Sailor.wav" WAVE
TRACK 08 AUDIO
TITLE "Shipwrecked Sailor"
PERFORMER "Mike Westbrook"
INDEX 01 00:00:00
 
CD2
REM GENRE "Contemporary Jazz"
REM DATE 1979
REM DISCID A20CF30C
REM COMMENT "ExactAudioCopy v1.0b3"
PERFORMER "Mike Westbrook"
TITLE "Mama Chicago CD2"
FILE "01 - Prelude.wav" WAVE
TRACK 01 AUDIO
TITLE "Prelude"
PERFORMER "Mike Westbrook"
INDEX 01 00:00:00
FILE "02 - Song Of The Rain.wav" WAVE
TRACK 02 AUDIO
TITLE "Song Of The Rain"
PERFORMER "Mike Westbrook"
INDEX 01 00:00:00
FILE "03 - Prisoners' Hymn.wav" WAVE
TRACK 03 AUDIO
TITLE "Prisoners' Hymn"
PERFORMER "Mike Westbrook"
INDEX 01 00:00:00
FILE "04 - Pre-Conceived Ideas.wav" WAVE
TRACK 04 AUDIO
TITLE "Pre-Conceived Ideas"
PERFORMER "Mike Westbrook"
INDEX 01 00:00:00
FILE "05 - Heart In Heart, Hand In Hand.wav" WAVE
TRACK 05 AUDIO
TITLE "Heart In Heart, Hand In Hand"
PERFORMER "Mike Westbrook"
INDEX 01 00:00:00
FILE "06 - Goin' To Chicago.wav" WAVE
TRACK 06 AUDIO
TITLE "Goin' To Chicago"
PERFORMER "Mike Westbrook"
INDEX 01 00:00:00
TRACK 07 AUDIO
TITLE "Apple Pie"
PERFORMER "Mike Westbrook"
INDEX 00 06:09:20
FILE "07 - Apple Pie.wav" WAVE
INDEX 01 00:00:00
TRACK 08 AUDIO
TITLE "Mama Chicago (4)"
PERFORMER "Mike Westbrook"
INDEX 00 02:55:05
FILE "08 - Mama Chicago (4).wav" WAVE
INDEX 01 00:00:00
FILE "09 - Mama Chicago (5).wav" WAVE
TRACK 09 AUDIO
TITLE "Mama Chicago (5)"
PERFORMER "Mike Westbrook"
INDEX 01 00:00:00
FILE "10 - Windy City.wav" WAVE
TRACK 10 AUDIO
TITLE "Windy City"
PERFORMER "Mike Westbrook"
INDEX 01 00:00:00
FILE "11 - Titanic Song.wav" WAVE
TRACK 11 AUDIO
TITLE "Titanic Song"
PERFORMER "Mike Westbrook"
INDEX 01 00:00:00
TRACK 12 AUDIO
TITLE "Concrete"
PERFORMER "Mike Westbrook"
INDEX 00 05:51:48
FILE "12 - Concrete.wav" WAVE
INDEX 01 00:00:00
 
Лог проверки качества
d:\>d:\aucdtect -d/-m0 d:\zzz\*.wav
auCDtect: CD records authenticity detector, version 0.8.2
Copyright (c) 2004 Oleg Berngardt. All rights reserved.
Copyright (c) 2004 Alexander Djourik. All rights reserved.
------------------------------------------------------------
Processing file: [01. Overture.wav]
------------------------------------------------------------
This track looks like CDDA with probability 99%
------------------------------------------------------------
Processing file: [01. Prelude.wav]
------------------------------------------------------------
This track looks like CDDA with probability 100%
------------------------------------------------------------
Processing file: [02. Mama Chicago (1).wav]
------------------------------------------------------------
This track looks like CDDA with probability 99%
------------------------------------------------------------
Processing file: [02. Song Of The Rain.wav]
------------------------------------------------------------
This track looks like CDDA with probability 100%
------------------------------------------------------------
Processing file: [03. Mama's Boogie.wav]
------------------------------------------------------------
This track looks like CDDA with probability 100%
------------------------------------------------------------
Processing file: [03. Prisoners' Hymn.wav]
------------------------------------------------------------
This track looks like CDDA with probability 100%
------------------------------------------------------------
Processing file: [04. Mama Chicago (2).wav]
------------------------------------------------------------
This track looks like CDDA with probability 100%
------------------------------------------------------------
Processing file: [04. Pre-Conceived Ideas.wav]
------------------------------------------------------------
This track looks like CDDA with probability 100%
------------------------------------------------------------
Processing file: [05. Heart In Heart, Hand In Hand.wav]
------------------------------------------------------------
This track looks like CDDA with probability 99%
------------------------------------------------------------
Processing file: [05. Senator's Song.wav]
------------------------------------------------------------
This track looks like CDDA with probability 100%
------------------------------------------------------------
Processing file: [06. Goin' To Chicago.wav]
------------------------------------------------------------
This track looks like CDDA with probability 99%
------------------------------------------------------------
Processing file: [06. Mama Chicago (3).wav]
------------------------------------------------------------
This track looks like CDDA with probability 100%
------------------------------------------------------------
Processing file: [07. Apple Pie.wav]
------------------------------------------------------------
This track looks like CDDA with probability 100%
------------------------------------------------------------
Processing file: [07. Voyage.wav]
------------------------------------------------------------
This track looks like CDDA with probability 100%
------------------------------------------------------------
Processing file: [08. Mama Chicago (4).wav]
------------------------------------------------------------
This track looks like CDDA with probability 100%
------------------------------------------------------------
Processing file: [08. Shipwrecked Sailor.wav]
------------------------------------------------------------
This track looks like CDDA with probability 100%
------------------------------------------------------------
Processing file: [09. Mama Chicago (5).wav]
------------------------------------------------------------
This track looks like CDDA with probability 100%
------------------------------------------------------------
Processing file: [10. Windy City.wav]
------------------------------------------------------------
This track looks like CDDA with probability 100%
------------------------------------------------------------
Processing file: [11. Titanic Song.wav]
------------------------------------------------------------
This track looks like CDDA with probability 100%
------------------------------------------------------------
Processing file: [12. Concrete.wav]
------------------------------------------------------------
This track looks like CDDA with probability 100%
------------------------------------------------------------
Final Conclusion:
------------------------------------------------------------
These tracks looks like CDDA with probability 100%
 
Состав
Alto Saxophone, Soprano Saxophone, Flute – Chris Hunter
Drums, Percussion – Dave Barry
Ensemble – Mike Westbrook Brass Band
Horn [Tenor], Piccolo Flute, Vocals – Kate Westbrook
Piano, Euphonium, Tuba – Mike Westbrook
Tenor Saxophone, Baritone Saxophone, Soprano Saxophone – Mick Page
Trombone, Trombone [Bass Trombone] – Malcolm Griffiths
Trumpet, Vocals – Phil Minton
Recorded at Teldec Studios, Hamburg, June 13-17 1979.
Any questions -> support@pro-jazz.com. По всем вопросам пишите -> support@pro-jazz.com
16:55
158
Нет комментариев. Ваш будет первым!